  0
SECTION
  2
HEADER
  9
$ACADVER
  1
AC1015
  9
$ACADMAINTVER
 70
    20
  9
$DWGCODEPAGE
  3
ANSI_950
  9
$INSBASE
 10
0.0
 20
0.0
 30
0.0
  9
$EXTMIN
 10
1348.570192123071
 20
579.2335685661032
 30
-0.0000000000000058
  9
$EXTMAX
 10
1645.613188038074
 20
1014.262303786287
 30
0.0000000000000104
  9
$LIMMIN
 10
0.0
 20
0.0
  9
$LIMMAX
 10
420.0
 20
297.0
  9
$ORTHOMODE
 70
     0
  9
$REGENMODE
 70
     1
  9
$FILLMODE
 70
     1
  9
$QTEXTMODE
 70
     0
  9
$MIRRTEXT
 70
     1
  9
$LTSCALE
 40
1.0
  9
$ATTMODE
 70
     1
  9
$TEXTSIZE
 40
4.0
  9
$TRACEWID
 40
1.0
  9
$TEXTSTYLE
  7
STANDARD
  9
$CLAYER
  8
0
  9
$CELTYPE
  6
BYLAYER
  9
$CECOLOR
 62
   256
  9
$CELTSCALE
 40
1.0
  9
$DISPSILH
 70
     0
  9
$DIMSCALE
 40
1.0
  9
$DIMASZ
 40
6.0
  9
$DIMEXO
 40
2.0
  9
$DIMDLI
 40
3.75
  9
$DIMRND
 40
0.0
  9
$DIMDLE
 40
0.0
  9
$DIMEXE
 40
2.0
  9
$DIMTP
 40
0.0
  9
$DIMTM
 40
0.0
  9
$DIMTXT
 40
6.0
  9
$DIMCEN
 40
2.5
  9
$DIMTSZ
 40
0.0
  9
$DIMTOL
 70
     0
  9
$DIMLIM
 70
     0
  9
$DIMTIH
 70
     0
  9
$DIMTOH
 70
     0
  9
$DIMSE1
 70
     0
  9
$DIMSE2
 70
     0
  9
$DIMTAD
 70
     3
  9
$DIMZIN
 70
     8
  9
$DIMBLK
  1

  9
$DIMASO
 70
     1
  9
$DIMSHO
 70
     1
  9
$DIMPOST
  1

  9
$DIMAPOST
  1

  9
$DIMALT
 70
     0
  9
$DIMALTD
 70
     2
  9
$DIMALTF
 40
25.4
  9
$DIMLFAC
 40
1.0
  9
$DIMTOFL
 70
     1
  9
$DIMTVP
 40
0.0
  9
$DIMTIX
 70
     0
  9
$DIMSOXD
 70
     0
  9
$DIMSAH
 70
     1
  9
$DIMBLK1
  1
OPEN30
  9
$DIMBLK2
  1
OPEN30
  9
$DIMSTYLE
  2
STANDARD-2
  9
$DIMCLRD
 70
     6
  9
$DIMCLRE
 70
     6
  9
$DIMCLRT
 70
     3
  9
$DIMTFAC
 40
1.0
  9
$DIMGAP
 40
2.0
  9
$DIMJUST
 70
     0
  9
$DIMSD1
 70
     0
  9
$DIMSD2
 70
     0
  9
$DIMTOLJ
 70
     1
  9
$DIMTZIN
 70
     0
  9
$DIMALTZ
 70
     0
  9
$DIMALTTZ
 70
     0
  9
$DIMUPT
 70
     0
  9
$DIMDEC
 70
     2
  9
$DIMTDEC
 70
     2
  9
$DIMALTU
 70
     2
  9
$DIMALTTD
 70
     2
  9
$DIMTXSTY
  7
STANDARD
  9
$DIMAUNIT
 70
     0
  9
$DIMADEC
 70
     0
  9
$DIMALTRND
 40
0.0
  9
$DIMAZIN
 70
     0
  9
$DIMDSEP
 70
    46
  9
$DIMATFIT
 70
     2
  9
$DIMFRAC
 70
     0
  9
$DIMLDRBLK
  1

  9
$DIMLUNIT
 70
     2
  9
$DIMLWD
 70
    -2
  9
$DIMLWE
 70
    -2
  9
$DIMTMOVE
 70
     0
  9
$LUNITS
 70
     2
  9
$LUPREC
 70
     2
  9
$SKETCHINC
 40
1.0
  9
$FILLETRAD
 40
0.0
  9
$AUNITS
 70
     0
  9
$AUPREC
 70
     2
  9
$MENU
  1
acad
  9
$ELEVATION
 40
0.0
  9
$PELEVATION
 40
0.0
  9
$THICKNESS
 40
0.0
  9
$LIMCHECK
 70
     0
  9
$CHAMFERA
 40
10.0
  9
$CHAMFERB
 40
10.0
  9
$CHAMFERC
 40
20.0
  9
$CHAMFERD
 40
0.0
  9
$SKPOLY
 70
     0
  9
$TDCREATE
 40
2453683.383260186
  9
$TDUCREATE
 40
2453683.049926852
  9
$TDUPDATE
 40
2459373.426586817
  9
$TDUUPDATE
 40
2459373.093253484
  9
$TDINDWG
 40
0.1733007523
  9
$TDUSRTIMER
 40
0.1733007523
  9
$USRTIMER
 70
     1
  9
$ANGBASE
 50
0.0
  9
$ANGDIR
 70
     0
  9
$PDMODE
 70
     0
  9
$PDSIZE
 40
0.0
  9
$PLINEWID
 40
0.0
  9
$SPLFRAME
 70
     0
  9
$SPLINETYPE
 70
     6
  9
$SPLINESEGS
 70
     8
  9
$HANDSEED
  5
1E6F
  9
$SURFTAB1
 70
     6
  9
$SURFTAB2
 70
     6
  9
$SURFTYPE
 70
     6
  9
$SURFU
 70
     6
  9
$SURFV
 70
     6
  9
$UCSBASE
  2

  9
$UCSNAME
  2

  9
$UCSORG
 10
0.0
 20
0.0
 30
0.0
  9
$UCSXDIR
 10
1.0
 20
0.0
 30
0.0
  9
$UCSYDIR
 10
0.0
 20
1.0
 30
0.0
  9
$UCSORTHOREF
  2

  9
$UCSORTHOVIEW
 70
     0
  9
$UCSORGTOP
 10
0.0
 20
0.0
 30
0.0
  9
$UCSORGBOTTOM
 10
0.0
 20
0.0
 30
0.0
  9
$UCSORGLEFT
 10
0.0
 20
0.0
 30
0.0
  9
$UCSORGRIGHT
 10
0.0
 20
0.0
 30
0.0
  9
$UCSORGFRONT
 10
0.0
 20
0.0
 30
0.0
  9
$UCSORGBACK
 10
0.0
 20
0.0
 30
0.0
  9
$PUCSBASE
  2

  9
$PUCSNAME
  2

  9
$PUCSORG
 10
0.0
 20
0.0
 30
0.0
  9
$PUCSXDIR
 10
1.0
 20
0.0
 30
0.0
  9
$PUCSYDIR
 10
0.0
 20
1.0
 30
0.0
  9
$PUCSORTHOREF
  2

  9
$PUCSORTHOVIEW
 70
     0
  9
$PUCSORGTOP
 10
0.0
 20
0.0
 30
0.0
  9
$PUCSORGBOTTOM
 10
0.0
 20
0.0
 30
0.0
  9
$PUCSORGLEFT
 10
0.0
 20
0.0
 30
0.0
  9
$PUCSORGRIGHT
 10
0.0
 20
0.0
 30
0.0
  9
$PUCSORGFRONT
 10
0.0
 20
0.0
 30
0.0
  9
$PUCSORGBACK
 10
0.0
 20
0.0
 30
0.0
  9
$USERI1
 70
     0
  9
$USERI2
 70
     0
  9
$USERI3
 70
     0
  9
$USERI4
 70
     0
  9
$USERI5
 70
     0
  9
$USERR1
 40
0.0
  9
$USERR2
 40
0.0
  9
$USERR3
 40
0.0
  9
$USERR4
 40
0.0
  9
$USERR5
 40
0.0
  9
$WORLDVIEW
 70
     1
  9
$SHADEDGE
 70
     3
  9
$SHADEDIF
 70
    70
  9
$TILEMODE
 70
     1
  9
$MAXACTVP
 70
    48
  9
$PINSBASE
 10
0.0
 20
0.0
 30
0.0
  9
$PLIMCHECK
 70
     0
  9
$PEXTMIN
 10
28.51784982681273
 20
19.82258291244505
 30
0.0
  9
$PEXTMAX
 10
256.6606484413147
 20
178.4032462120056
 30
0.0
  9
$PLIMMIN
 10
0.0
 20
0.0
  9
$PLIMMAX
 10
420.0
 20
297.0
  9
$UNITMODE
 70
     0
  9
$VISRETAIN
 70
     1
  9
$PLINEGEN
 70
     0
  9
$PSLTSCALE
 70
     1
  9
$TREEDEPTH
 70
  3020
  9
$CMLSTYLE
  2
STANDARD
  9
$CMLJUST
 70
     0
  9
$CMLSCALE
 40
20.0
  9
$PROXYGRAPHICS
 70
     1
  9
$MEASUREMENT
 70
     1
  9
$CELWEIGHT
370
    -1
  9
$ENDCAPS
280
     0
  9
$JOINSTYLE
280
     0
  9
$LWDISPLAY
290
     0
  9
$INSUNITS
 70
     0
  9
$HYPERLINKBASE
  1

  9
$STYLESHEET
  1
LIN.ctb
  9
$XEDIT
290
     1
  9
$CEPSNTYPE
380
     0
  9
$PSTYLEMODE
290
     1
  9
$FINGERPRINTGUID
  2
{333D0751-A3E8-4644-975A-18508C0E0766}
  9
$VERSIONGUID
  2
{5EF99161-9E0D-4C78-89C3-03D85D0A7DBA}
  9
$EXTNAMES
290
     1
  9
$PSVPSCALE
 40
0.0
  9
$OLESTARTUP
290
     0
  0
ENDSEC
  0
SECTION
  2
CLASSES
  0
CLASS
  1
DICTIONARYVAR
  2
AcDbDictionaryVar
  3
ObjectDBX Classes
 90
        0
280
     0
281
     0
  0
CLASS
  1
ACDBDICTIONARYWDFLT
  2
AcDbDictionaryWithDefault
  3
ObjectDBX Classes
 90
        0
280
     0
281
     0
  0
CLASS
  1
TABLESTYLE
  2
AcDbTableStyle
  3
ObjectDBX Classes
 90
     4095
280
     0
281
     0
  0
CLASS
  1
MATERIAL
  2
AcDbMaterial
  3
ObjectDBX Classes
 90
     1153
280
     0
281
     0
  0
CLASS
  1
VISUALSTYLE
  2
AcDbVisualStyle
  3
ObjectDBX Classes
 90
     4095
280
     0
281
     0
  0
CLASS
  1
SCALE
  2
AcDbScale
  3
ObjectDBX Classes
 90
     1153
280
     0
281
     0
  0
CLASS
  1
MLEADERSTYLE
  2
AcDbMLeaderStyle
  3
ACDB_MLEADERSTYLE_CLASS
 90
     4095
280
     0
281
     0
  0
CLASS
  1
ACME_DOCUMENT
  2
AcMeDbDoc
  3
AcMeServices
 90
     1024
280
     0
281
     0
  0
CLASS
  1
AMGSETTINGSOBJ
  2
AmgSettingsObj
  3
"AcadM|Product Description: AutoCAD Mechanical|Company: Autodesk, Inc."
 90
     1024
280
     0
281
     0
  0
CLASS
  1
ACMESCOPE
  2
AcMeScope
  3
AcMeServices
 90
     1024
280
     0
281
     0
  0
CLASS
  1
ACMECOMMANDHISTORY
  2
AcMeCommandHistory
  3
AcMeServices
 90
     1024
280
     0
281
     0
  0
CLASS
  1
ACIMSYSVARMAN
  2
AcImSysVarManager
  3
AcMeServices
 90
     1024
280
     0
281
     0
  0
CLASS
  1
ACIMINTSYSVAR
  2
AcImIntSysVar
  3
AcMeServices
 90
     1024
280
     0
281
     0
  0
CLASS
  1
ACMESTATEMGR
  2
AcMeStateMgr
  3
AcMeServices
 90
     1024
280
     0
281
     0
  0
CLASS
  1
ACDBENTITYCACHE
  2
AcMeEntityCache
  3
AcMeServices
 90
     1024
280
     0
281
     0
  0
CLASS
  1
ACGREFMASTER
  2
AcGrefMaster
  3
AcAttribServices
 90
     1024
280
     0
281
     0
  0
CLASS
  1
AM_DRAWING_MGR
  2
AcDmDwgMgr
  3
AcMechDwgViewMgmt
 90
    33792
280
     0
281
     0
  0
CLASS
  1
AM_DWG_DOCUMENT
  2
AcDmDwgDocument
  3
AcMechDwgViewMgmt
 90
    33792
280
     0
281
     0
  0
CLASS
  1
AM_DWG_SHEET
  2
AcDmSheet
  3
AcMechDwgViewMgmt
 90
    33792
280
     0
281
     0
  0
CLASS
  1
AM_VIEWDIMPARMAP
  2
AcDmViewDimParMap
  3
AcMechDwgViewMgmt
 90
    33792
280
     0
281
     0
  0
CLASS
  1
AMDTINTERNALREACTOR
  2
AmdtInternalReactor
  3
AcMeServices
 90
    33792
280
     0
281
     0
  0
CLASS
  1
ACIMREALSYSVAR
  2
AcImRealSysVar
  3
AcMeServices
 90
    33792
280
     0
281
     0
  0
CLASS
  1
AM_DWGMGR_NAME
  2
AcDmDwgMgrName
  3
AcMechDwgViewMgmt
 90
    33792
280
     0
281
     0
  0
CLASS
  1
ACME_DATABASE
  2
AcMeDbDatabase
  3
AcMeServices
 90
     1024
280
     0
281
     0
  0
CLASS
  1
ACRFINSADJUSTERMGR
  2
AcRfInsAdjusterMgr
  3
AcMeServices
 90
     1024
280
     0
281
     0
  0
CLASS
  1
ACGREFACADMASTER
  2
AcGrefacadMaster
  3
AcGrefServices
 90
     1024
280
     0
281
     0
  0
CLASS
  1
AMDTMENUSTATEMGR
  2
AmdtMenuStateMgr
  3
McadcomServices
 90
     1024
280
     0
281
     0
  0
CLASS
  1
AMDTMCOMMENUSTATE
  2
AmdtMcomMenuState
  3
McadcomServices
 90
     1024
280
     0
281
     0
  0
CLASS
  1
AMIMASTER
  2
AmiMaster
  3
AmiServices
 90
     1024
280
     0
281
     0
  0
CLASS
  1
MAPIAMMOUDLE
  2
MApiAmModule
  3
MApiAmServices
 90
     1024
280
     0
281
     0
  0
CLASS
  1
ACIMSTRSYSVAR
  2
AcImStrSysVar
  3
AcMeServices
 90
     1024
280
     0
281
     0
  0
CLASS
  1
AMDTDMMENUSTATE
  2
AmdtDmMenuState
  3
AcMechDwgViewMgmt
 90
    33792
280
     0
281
     0
  0
CLASS
  1
AMDTAMMENUSTATE
  2
AmdtAmMenuState
  3
DesignerAssemblies
 90
     1024
280
     0
281
     0
  0
CLASS
  1
ACAMPROJECT
  2
AcAmProject
  3
DesignerAssemblies
 90
     1024
280
     0
281
     0
  0
CLASS
  1
ACAMGRCOMPDEF
  2
AcAmGrCompDef
  3
DesignerAssemblies
 90
     1024
280
     0
281
     0
  0
CLASS
  1
ACAMCOMPDEF
  2
AcAmCompDef
  3
DesignerAssemblies
 90
     1024
280
     0
281
     0
  0
CLASS
  1
ACAMCOMPDEFMGR
  2
AcAmCompDefMgr
  3
DesignerAssemblies
 90
     1024
280
     0
281
     0
  0
CLASS
  1
AMCONTEXTMGR
  2
AcAmContextMgr
  3
DesignerAssemblies
 90
     1024
280
     0
281
     0
  0
CLASS
  1
ACAMCONTEXTMODELER
  2
AcAmContextModeler
  3
DesignerAssemblies
 90
     1024
280
     0
281
     0
  0
CLASS
  1
ACMDATADICTIONARY
  2
AcmDataDictionary
  3
"AcmSymBB|Product Description: AutoCAD Mechanical|Company: Autodesk, Inc."
 90
     1024
280
     0
281
     0
  0
CLASS
  1
ACAMGRCOMPDEFSET
  2
AcAmGrCompDefSet
  3
DesignerAssemblies
 90
     1024
280
     0
281
     0
  0
CLASS
  1
AMDTBROWSERDBTAB
  2
AmdtBrowserDbTab
  3
McadcomServices
 90
     1024
280
     0
281
     0
  0
CLASS
  1
CBROWSERAPPOBJECT
  2
CBrowserAppObject
  3
McadcomServices
 90
     1024
280
     0
281
     0
  0
CLASS
  1
DM_PLACEHOLDER
  2
AcDmSelsetPlaceholder
  3
McadcomServices
 90
     1024
280
     0
281
     0
  0
CLASS
  1
EXACXREFPANELOBJECT
  2
ExAcXREFPanelObject
  3
EXAC_ESW
 90
    33793
280
     0
281
     0
  0
CLASS
  1
NPOCOLLECTION
  2
AcDbImpNonPersistentObjectsCollection
  3
ObjectDBX Classes
 90
    33921
280
     0
281
     0
  0
CLASS
  1
ACMSTANDARDISO
  2
AcmStandardISO
  3
"Amdt_StdImp|Product Description: AutoCAD Mechanical|Company: Autodesk, Inc."
 90
     1024
280
     0
281
     0
  0
CLASS
  1
AMDTEDGESTANDARDISO13715
  2
AmdtEdgeStdISO13715
  3
"Amdt_StdImp|Product Description: AutoCAD Mechanical|Company: Autodesk, Inc."
 90
     1024
280
     0
281
     0
  0
CLASS
  1
ACMSURFSTANDARDISO2002
  2
AcmSurfTextStdISO2002
  3
"Amdt_StdImp|Product Description: AutoCAD Mechanical|Company: Autodesk, Inc."
 90
     1024
280
     0
281
     0
  0
CLASS
  1
ACMFCFSTANDARDISO
  2
AcmFCFStdISO
  3
"Amdt_StdImp|Product Description: AutoCAD Mechanical|Company: Autodesk, Inc."
 90
    33792
280
     0
281
     0
  0
CLASS
  1
ACMWELDSTANDARDISO
  2
AcmWeldingStdISO
  3
"Amdt_StdImp|Product Description: AutoCAD Mechanical|Company: Autodesk, Inc."
 90
     1024
280
     0
281
     0
  0
CLASS
  1
ACMIDSTANDARDISO
  2
AcmIdStdISO
  3
"Amdt_StdImp|Product Description: AutoCAD Mechanical|Company: Autodesk, Inc."
 90
    33792
280
     0
281
     0
  0
CLASS
  1
ACMDATUMSTANDARDISO
  2
AcmDatumStdISO
  3
"Amdt_StdImp|Product Description: AutoCAD Mechanical|Company: Autodesk, Inc."
 90
     1024
280
     0
281
     0
  0
CLASS
  1
ACMBOMSTANDARDISO
  2
AcmBOMStdISO
  3
"Amdt_StdImp|Product Description: AutoCAD Mechanical|Company: Autodesk, Inc."
 90
     1024
280
     0
281
     0
  0
CLASS
  1
ACMDETAILSTANDARDISO
  2
AmdtDetailSymStdISO
  3
"Amdt_StdImp|Product Description: AutoCAD Mechanical|Company: Autodesk, Inc."
 90
     1024
280
     0
281
     0
  0
CLASS
  1
ACMSECTIONSTANDARDISO2001
  2
AmdtSectionSymStdISO2001
  3
"Amdt_StdImp|Product Description: AutoCAD Mechanical|Company: Autodesk, Inc."
 90
     1024
280
     0
281
     0
  0
CLASS
  1
ACMCENTERLINESTANDARDISO
  2
AmdtCenterLineStdISO
  3
"Amdt_StdImp|Product Description: AutoCAD Mechanical|Company: Autodesk, Inc."
 90
     1024
280
     0
281
     0
  0
CLASS
  1
ACMTHREADLINESTANDARDISO
  2
AmdtThreadLineStdISO
  3
"Amdt_StdImp|Product Description: AutoCAD Mechanical|Company: Autodesk, Inc."
 90
     1024
280
     0
281
     0
  0
CLASS
  1
ACMNOTESTANDARDISO
  2
AmdtNoteStdISO
  3
"Amdt_StdImp|Product Description: AutoCAD Mechanical|Company: Autodesk, Inc."
 90
     1024
280
     0
281
     0
  0
CLASS
  1
ACMTAPERSTANDARDISO
  2
AcmTaperStdISO
  3
"Amdt_StdImp|Product Description: AutoCAD Mechanical|Company: Autodesk, Inc."
 90
     1024
280
     0
281
     0
  0
CLASS
  1
ACMANOOTATIONVIEWSTANDARDISO
  2
AmdtAnViewStdISO
  3
"Amdt_StdImp|Product Description: AutoCAD Mechanical|Company: Autodesk, Inc."
 90
     1024
280
     0
281
     0
  0
CLASS
  1
ACAMGLAYSTD
  2
AcAmgLayStd
  3
"AmgLay|Product Description: AutoCAD Mechanical|Company: Autodesk, Inc."
 90
     1024
280
     0
281
     0
  0
CLASS
  1
ACAMGDIMSTD
  2
AcAmgDimStd
  3
"AmgDim|Product Description: AutoCAD Mechanical|Company: Autodesk, Inc."
 90
     1024
280
     0
281
     0
  0
CLASS
  1
AMGOBJPROPCFG
  2
AmgObjPropCfg
  3
"AmgLay|Product Description: AutoCAD Mechanical|Company: Autodesk, Inc."
 90
     1025
280
     0
281
     0
  0
CLASS
  1
ACAMGHOLECHARTSTDISO
  2
AcAmgHoleChartStdISO
  3
AmgDim|Product Description: AutoCAD Mechanical|Company: Autodesk, Inc.
 90
     1024
280
     0
281
     0
  0
CLASS
  1
ACAMGTITLESTD
  2
AcAmgTitleStd
  3
"AmgTitle|Product Description: AutoCAD Mechanical|Company: Autodesk, Inc."
 90
     4095
280
     0
281
     0
  0
CLASS
  1
AMDTNOTETEMPLATEDB
  2
AmdtNoteTemplateDB
  3
AcmSymBB|Product Description: AutoCAD Mechanical|Company: Autodesk, Inc.
 90
     1024
280
     0
281
     0
  0
CLASS
  1
ACAMGFILTERDAT
  2
AcAmgFilterDat
  3
"AcadM|Product Description: AutoCAD Mechanical|Company: Autodesk, Inc."
 90
    33792
280
     0
281
     0
  0
CLASS
  1
CELLSTYLEMAP
  2
AcDbCellStyleMap
  3
ObjectDBX Classes
 90
     1152
280
     0
281
     0
  0
CLASS
  1
ACDBPLACEHOLDER
  2
AcDbPlaceHolder
  3
ObjectDBX Classes
 90
        0
280
     0
281
     0
  0
CLASS
  1
LAYOUT
  2
AcDbLayout
  3
ObjectDBX Classes
 90
        0
280
     0
281
     0
  0
CLASS
  1
ACMFCFSTANDARDISO2004
  2
AcmFCFStdISO2004
  3
"Amdt_StdImp|Product Description: AutoCAD Mechanical|Company: Autodesk, Inc."
 90
     1024
280
     0
281
     0
  0
CLASS
  1
ACMIDSTANDARDISO2004
  2
AcmIdStdISO2004
  3
"Amdt_StdImp|Product Description: AutoCAD Mechanical|Company: Autodesk, Inc."
 90
     1024
280
     0
281
     0
  0
ENDSEC
  0
SECTION
  2
TABLES
  0
TABLE
  2
VPORT
  5
8
102
{ACAD_XDICTIONARY
360
1B61
102
}
330
0
100
AcDbSymbolTable
 70
     1
  0
VPORT
  5
1A5E
330
8
100
AcDbSymbolTableRecord
100
AcDbViewportTableRecord
  2
*Active
 70
     0
 10
0.0
 20
0.0
 11
1.0
 21
1.0
 12
1497.091690080573
 22
796.7479361761952
 13
0.0
 23
0.0
 14
10.0
 24
10.0
 15
10.0
 25
10.0
 16
0.0
 26
0.0
 36
1.0
 17
0.0
 27
0.0
 37
0.0
 40
438.2955342331015
 41
2.199248120300751
 42
50.0
 43
0.0
 44
0.0
 50
0.0
 51
0.0
 71
     0
 72
   100
 73
     1
 74
     1
 75
     0
 76
     0
 77
     0
 78
     0
281
     0
 65
     1
110
0.0
120
0.0
130
0.0
111
1.0
121
0.0
131
0.0
112
0.0
122
1.0
132
0.0
 79
     0
146
0.0
1001
ACAD_NAV_VCDISPLAY
1070
     3
  0
ENDTAB
  0
TABLE
  2
LTYPE
  5
5
330
0
100
AcDbSymbolTable
 70
    18
  0
LTYPE
  5
12
330
5
100
AcDbSymbolTableRecord
100
AcDbLinetypeTableRecord
  2
BYBLOCK
 70
     0
  3

 72
    65
 73
     0
 40
0.0
  0
LTYPE
  5
13
330
5
100
AcDbSymbolTableRecord
100
AcDbLinetypeTableRecord
  2
BYLAYER
 70
     0
  3

 72
    65
 73
     0
 40
0.0
  0
LTYPE
  5
14
330
5
100
AcDbSymbolTableRecord
100
AcDbLinetypeTableRecord
  2
CONTINUOUS
 70
     0
  3
Solid line
 72
    65
 73
     0
 40
0.0
  0
LTYPE
  5
932
330
5
100
AcDbSymbolTableRecord
100
AcDbLinetypeTableRecord
  2
CENTER2
 70
     0
  3
Center (.5x) ___ _ ___ _ ___ _ ___ _ ___ _ ___
 72
    65
 73
     4
 40
28.575
 49
19.05
 74
     0
 49
-3.174999999999999
 74
     0
 49
3.174999999999999
 74
     0
 49
-3.174999999999999
 74
     0
  0
LTYPE
  5
1B23
330
5
100
AcDbSymbolTableRecord
100
AcDbLinetypeTableRecord
  2
AM_ISO02W050
 70
     0
  3
__ __ __ __ __ __ __ __ __ __ __ __ __ __ __
 72
    65
 73
     2
 40
7.5
 49
6.0
 74
     0
 49
-1.5
 74
     0
  0
LTYPE
  5
1B24
330
5
100
AcDbSymbolTableRecord
100
AcDbLinetypeTableRecord
  2
AM_ISO08W050
 70
     0
  3
____ . ____ . ____ . ____ . ____ . ____ . ____
 72
    65
 73
     4
 40
18.0
 49
12.0
 74
     0
 49
-1.5
 74
     0
 49
3.0
 74
     0
 49
-1.5
 74
     0
  0
LTYPE
  5
1B25
330
5
100
AcDbSymbolTableRecord
100
AcDbLinetypeTableRecord
  2
AM_ISO09W050
 70
     0
  3
_____ . . _____ . . _____ . . ____ .. ____
 72
    65
 73
     6
 40
22.5
 49
12.0
 74
     0
 49
-1.5
 74
     0
 49
3.0
 74
     0
 49
-1.5
 74
     0
 49
3.0
 74
     0
 49
-1.5
 74
     0
  0
LTYPE
  5
1B26
330
5
100
AcDbSymbolTableRecord
100
AcDbLinetypeTableRecord
  2
Amconstr
 70
     0
  3
_______________________
 72
    65
 73
     2
 40
9999.0
 49
9999.0
 74
     0
 49
0.0
 74
     0
  0
LTYPE
  5
1B27
330
5
100
AcDbSymbolTableRecord
100
AcDbLinetypeTableRecord
  2
AM_ISO08W050x2
 70
     0
  3
__ . __ . __ . __ . __ . __
 72
    65
 73
     4
 40
9.0
 49
6.0
 74
     0
 49
-0.75
 74
     0
 49
1.5
 74
     0
 49
-0.75
 74
     0
  0
LTYPE
  5
1B28
330
5
100
AcDbSymbolTableRecord
100
AcDbLinetypeTableRecord
  2
AM_ISO02W050x2
 70
     0
  3
 _ _ _ _ _ _ _ _ _ _ _ _
 72
    65
 73
     2
 40
3.75
 49
3.0
 74
     0
 49
-0.75
 74
     0
  0
LTYPE
  5
1B2B
330
5
100
AcDbSymbolTableRecord
100
AcDbLinetypeTableRecord
  2
Amzigzag
 70
     0
  3
/\/-/\/-/\/-/\/-/\/-/\/
 72
    65
 73
     2
 40
11.0001
 49
0.0001
 74
     4
 75
   136
340
1B2A
 46
0.04
 50
0.0
 44
0.0
 45
0.0
 49
-11.0
 74
     0
  0
LTYPE
  5
1B3A
330
5
100
AcDbSymbolTableRecord
100
AcDbLinetypeTableRecord
  2
ACISOWELD
 70
     0
  3
_ _ _ _ _
 72
    65
 73
     2
 40
2.0
 49
2.0
 74
     0
 49
-1.0
 74
     0
  0
LTYPE
  5
1B3B
330
5
100
AcDbSymbolTableRecord
100
AcDbLinetypeTableRecord
  2
ACISOTGB
 70
     0
  3
__ . . __ . .
 72
    65
 73
     6
 40
9.0
 49
4.0
 74
     0
 49
-1.0
 74
     0
 49
1.0
 74
     0
 49
-1.0
 74
     0
 49
1.0
 74
     0
 49
-1.0
 74
     0
  0
LTYPE
  5
1B3C
330
5
100
AcDbSymbolTableRecord
100
AcDbLinetypeTableRecord
  2
ACISOTGL
 70
     0
  3
_ _ _ _ _
 72
    65
 73
     2
 40
3.0
 49
2.0
 74
     0
 49
-1.0
 74
     0
  0
ENDTAB
  0
TABLE
  2
LAYER
  5
2
330
0
100
AcDbSymbolTable
 70
     9
  0
LAYER
  5
E
102
{ACAD_XDICTIONARY
360
1B4D
102
}
330
2
100
AcDbSymbolTableRecord
100
AcDbLayerTableRecord
  2
0
 70
     0
 62
     7
  6
CONTINUOUS
370
    -3
390
19C9
  0
LAYER
  5
2A2
330
2
100
AcDbSymbolTableRecord
100
AcDbLayerTableRecord
  2
DEFPOINTS
 70
     0
 62
     7
  6
CONTINUOUS
290
     0
370
    -3
390
19C9
  0
LAYER
  5
2A5
102
{ACAD_XDICTIONARY
360
1B4F
102
}
330
2
100
AcDbSymbolTableRecord
100
AcDbLayerTableRecord
  2
\U+56F3\U+67A2線
 70
     0
 62
     9
  6
CONTINUOUS
370
    -3
390
19C9
1001
ACADSTRINGINFO
1000
MIFCodePage
1070
     1
  0
LAYER
  5
934
102
{ACAD_XDICTIONARY
360
1B51
102
}
330
2
100
AcDbSymbolTableRecord
100
AcDbLayerTableRecord
  2
中心線
 70
     0
 62
     1
  6
CENTER2
370
    -3
390
19C9
1001
ACADSTRINGINFO
1000
MIFCodePage
1070
     1
  0
LAYER
  5
1497
102
{ACAD_XDICTIONARY
360
1B55
102
}
330
2
100
AcDbSymbolTableRecord
100
AcDbLayerTableRecord
  2
剖面線
 70
     0
 62
     5
  6
CONTINUOUS
370
    -3
390
19C9
1001
ACADSTRINGINFO
1000
MIFCodePage
1070
     1
  0
LAYER
  5
1498
102
{ACAD_XDICTIONARY
360
1B57
102
}
330
2
100
AcDbSymbolTableRecord
100
AcDbLayerTableRecord
  2
本体外線
 70
     0
 62
     2
  6
CONTINUOUS
370
    -3
390
19C9
1001
ACADSTRINGINFO
1000
MIFCodePage
1070
     1
  0
LAYER
  5
14A3
102
{ACAD_XDICTIONARY
360
1B59
102
}
330
2
100
AcDbSymbolTableRecord
100
AcDbLayerTableRecord
  2
標註線
 70
     0
 62
     6
  6
CONTINUOUS
370
    -3
390
19C9
1001
ACADSTRINGINFO
1000
MIFCodePage
1070
     1
  0
LAYER
  5
14A4
102
{ACAD_XDICTIONARY
360
1B5B
102
}
330
2
100
AcDbSymbolTableRecord
100
AcDbLayerTableRecord
  2
DIM
 70
     0
 62
     3
  6
CONTINUOUS
370
    -3
390
19C9
  0
ENDTAB
  0
TABLE
  2
STYLE
  5
3
330
0
100
AcDbSymbolTable
 70
     9
  0
STYLE
  5
F
330
3
100
AcDbSymbolTableRecord
100
AcDbTextStyleTableRecord
  2
STANDARD
 70
     0
 40
0.0
 41
1.0
 50
0.0
 71
     0
 42
4.0
  3
txt.shx
  4
bigfont.shx
  0
STYLE
  5
2A6
330
3
100
AcDbSymbolTableRecord
100
AcDbTextStyleTableRecord
  2
p
 70
     0
 40
3.5
 41
1.0
 50
0.0
 71
     0
 42
3.5
  3

  4

1001
ACAD
1000
MingLiU
1071
    34865
  0
STYLE
  5
2A9
330
3
100
AcDbSymbolTableRecord
100
AcDbTextStyleTableRecord
  2
LKK
 70
     0
 40
50.0
 41
1.5
 50
0.0
 71
     0
 42
50.0
  3
MS PGothic.ttf
  4

1001
ACAD
1000
MS PGothic
1071
    32818
  0
STYLE
  5
2AA
330
3
100
AcDbSymbolTableRecord
100
AcDbTextStyleTableRecord
  2
JL
 70
     0
 40
10.0
 41
0.5
 50
0.0
 71
     0
 42
5.0
  3
MS Mincho.ttf
  4

1001
ACAD
1000
MS Mincho
1071
    32785
  0
STYLE
  5
1B2A
330
3
100
AcDbSymbolTableRecord
100
AcDbTextStyleTableRecord
  2

 70
     1
 40
0.0
 41
1.0
 50
0.0
 71
     0
 42
4.0
  3
genltshp.shx
  4

  0
STYLE
  5
1B39
330
3
100
AcDbSymbolTableRecord
100
AcDbTextStyleTableRecord
  2
ACISOGDT
 70
     0
 40
0.0
 41
1.0
 50
0.0
 71
     0
 42
4.0
  3
amgdt.shx
  4

  0
ENDTAB
  0
TABLE
  2
VIEW
  5
6
330
0
100
AcDbSymbolTable
 70
     0
  0
ENDTAB
  0
TABLE
  2
UCS
  5
7
330
0
100
AcDbSymbolTable
 70
     0
  0
ENDTAB
  0
TABLE
  2
APPID
  5
9
330
0
100
AcDbSymbolTable
 70
    21
  0
APPID
  5
10
330
9
100
AcDbSymbolTableRecord
100
AcDbRegAppTableRecord
  2
ACAD
 70
     0
  0
APPID
  5
1A3F
330
9
100
AcDbSymbolTableRecord
100
AcDbRegAppTableRecord
  2
ACAD_PSEXT
 70
     0
  0
APPID
  5
1AA5
330
9
100
AcDbSymbolTableRecord
100
AcDbRegAppTableRecord
  2
ACADSTRINGINFO
 70
     0
  0
APPID
  5
1ABA
330
9
100
AcDbSymbolTableRecord
100
AcDbRegAppTableRecord
  2
MCAD_NO_VIS
 70
     0
  0
APPID
  5
1ABB
330
9
100
AcDbSymbolTableRecord
100
AcDbRegAppTableRecord
  2
ACAD_TEMP_GRAPHIC
 70
     0
  0
APPID
  5
1AE5
330
9
100
AcDbSymbolTableRecord
100
AcDbRegAppTableRecord
  2
AD_DRAW
 70
     0
  0
APPID
  5
1AE8
330
9
100
AcDbSymbolTableRecord
100
AcDbRegAppTableRecord
  2
ACATTRIBSERVICES
 70
     0
  0
APPID
  5
1B01
330
9
100
AcDbSymbolTableRecord
100
AcDbRegAppTableRecord
  2
DESIGNERASSEMBLIES
 70
     0
  0
APPID
  5
1B06
330
9
100
AcDbSymbolTableRecord
100
AcDbRegAppTableRecord
  2
ACADM_DIM_EDIT
 70
     0
  0
APPID
  5
1B07
330
9
100
AcDbSymbolTableRecord
100
AcDbRegAppTableRecord
  2
AMDT_DM_ADJ
 70
     0
  0
APPID
  5
1B20
330
9
100
AcDbSymbolTableRecord
100
AcDbRegAppTableRecord
  2
ACAD_DSTYLE_DIMJAG
 70
     0
  0
APPID
  5
1B21
330
9
100
AcDbSymbolTableRecord
100
AcDbRegAppTableRecord
  2
ACAD_DSTYLE_DIMBREAK
 70
     0
  0
APPID
  5
1B43
330
9
100
AcDbSymbolTableRecord
100
AcDbRegAppTableRecord
  2
GENIUS_GENSCREG_15
 70
     0
  0
APPID
  5
1B44
330
9
100
AcDbSymbolTableRecord
100
AcDbRegAppTableRecord
  2
GENIUS_GENOBJ-N-SDF_13
 70
     0
  0
APPID
  5
1B45
330
9
100
AcDbSymbolTableRecord
100
AcDbRegAppTableRecord
  2
GENIUS_GENODEF_13
 70
     0
  0
APPID
  5
1D81
330
9
100
AcDbSymbolTableRecord
100
AcDbRegAppTableRecord
  2
ACAD_MLEADERVER
 70
     0
  0
APPID
  5
1D82
330
9
100
AcDbSymbolTableRecord
100
AcDbRegAppTableRecord
  2
ACAD_DSTYLE_DIMARC_LENGTH_SYMBOL
 70
     0
  0
APPID
  5
1D83
330
9
100
AcDbSymbolTableRecord
100
AcDbRegAppTableRecord
  2
ACAD_DSTYLE_DIM_LINETYPE
 70
     0
  0
APPID
  5
1D84
330
9
100
AcDbSymbolTableRecord
100
AcDbRegAppTableRecord
  2
ACAD_DSTYLE_DIM_EXT1_LINETYPE
 70
     0
  0
APPID
  5
1D85
330
9
100
AcDbSymbolTableRecord
100
AcDbRegAppTableRecord
  2
ACAD_DSTYLE_DIM_EXT2_LINETYPE
 70
     0
  0
APPID
  5
1DE1
330
9
100
AcDbSymbolTableRecord
100
AcDbRegAppTableRecord
  2
ACAD_NAV_VCDISPLAY
 70
     0
  0
ENDTAB
  0
TABLE
  2
DIMSTYLE
  5
A
330
0
100
AcDbSymbolTable
 70
    10
100
AcDbDimStyleTable
 71
     1
340
2AC
  0
DIMSTYLE
105
2AC
102
{ACAD_REACTORS
330
1860
330
186D
330
19FF
330
1A0E
102
}
330
A
100
AcDbSymbolTableRecord
100
AcDbDimStyleTableRecord
  2
STANDARD-2
 70
     0
 41
6.0
 42
2.0
 43
3.75
 44
2.0
 73
     0
 74
     0
 77
     3
 78
     8
 79
     2
140
6.0
141
2.5
147
2.0
172
     1
173
     1
176
     6
177
     6
178
     3
179
     2
271
     2
272
     2
289
     2
340
F
341
14BC
343
14BC
344
14BC
371
     9
372
     9
  0
DIMSTYLE
105
1B1F
102
{ACAD_REACTORS
330
1DC7
102
}
330
A
100
AcDbSymbolTableRecord
100
AcDbDimStyleTableRecord
  2
AM_ISO
 70
     0
  4
"
 41
3.5
 42
1.0
 43
10.0
 44
1.0
 47
0.1
 48
0.1
 73
     0
 74
     0
 77
     1
 78
     8
 79
     2
140
3.5
141
0.0
143
0.0393701
146
0.71
147
1.5
172
     1
176
   256
177
   256
178
     2
271
     2
272
     3
274
     4
283
     0
284
     8
340
F
371
    -1
372
    -1
1001
ACAD_DSTYLE_DIMJAG
1070
   388
1040
1.5
1001
ACAD_DSTYLE_DIMBREAK
1070
   391
1040
3.75
1001
ACAD_DSTYLE_DIMARC_LENGTH_SYMBOL
1070
   379
1070
     1
1001
ACAD_DSTYLE_DIM_LINETYPE
1070
   380
1005
12
1001
ACAD_DSTYLE_DIM_EXT1_LINETYPE
1070
   381
1005
12
1001
ACAD_DSTYLE_DIM_EXT2_LINETYPE
1070
   382
1005
12
  0
DIMSTYLE
105
1B2C
330
A
100
AcDbSymbolTableRecord
100
AcDbDimStyleTableRecord
  2
AM_ISO$3
 70
     0
  4
"
 41
3.5
 42
1.0
 43
10.0
 44
1.0
 47
0.1
 48
0.1
 73
     0
 77
     1
 78
     8
 79
     2
140
3.5
141
0.0
143
0.0393701
146
0.71
147
1.5
176
   256
177
   256
178
     2
271
     2
272
     3
274
     4
283
     0
284
     8
288
     1
289
     0
340
F
371
    -1
372
    -1
1001
ACAD_DSTYLE_DIMBREAK
1070
   391
1040
3.75
1001
ACAD_DSTYLE_DIMJAG
1070
   388
1040
1.5
1001
ACAD_DSTYLE_DIMARC_LENGTH_SYMBOL
1070
   379
1070
     1
1001
ACAD_DSTYLE_DIM_LINETYPE
1070
   380
1005
12
1001
ACAD_DSTYLE_DIM_EXT1_LINETYPE
1070
   381
1005
12
1001
ACAD_DSTYLE_DIM_EXT2_LINETYPE
1070
   382
1005
12
  0
DIMSTYLE
105
1B2D
330
A
100
AcDbSymbolTableRecord
100
AcDbDimStyleTableRecord
  2
AM_ISO$4
 70
     0
  4
"
 41
3.5
 42
1.0
 43
10.0
 44
1.0
 47
0.1
 48
0.1
 73
     0
 77
     1
 78
     8
 79
     2
140
3.5
141
0.0
143
0.0393701
146
0.71
147
1.5
176
   256
177
   256
178
     2
271
     2
272
     3
274
     4
283
     0
284
     8
288
     1
289
     0
340
F
371
    -1
372
    -1
1001
ACAD_DSTYLE_DIMBREAK
1070
   391
1040
3.75
1001
ACAD_DSTYLE_DIMJAG
1070
   388
1040
1.5
1001
ACAD_DSTYLE_DIMARC_LENGTH_SYMBOL
1070
   379
1070
     1
1001
ACAD_DSTYLE_DIM_LINETYPE
1070
   380
1005
12
1001
ACAD_DSTYLE_DIM_EXT1_LINETYPE
1070
   381
1005
12
1001
ACAD_DSTYLE_DIM_EXT2_LINETYPE
1070
   382
1005
12
  0
DIMSTYLE
105
1B2E
330
A
100
AcDbSymbolTableRecord
100
AcDbDimStyleTableRecord
  2
AM_ISO$6
 70
     0
  4
"
 41
3.5
 42
1.0
 43
10.0
 44
1.0
 47
0.1
 48
0.1
 73
     0
 74
     0
 78
     8
 79
     2
140
3.5
141
0.0
143
0.0393701
146
0.71
147
1.5
172
     1
176
   256
177
   256
178
     2
271
     2
272
     3
274
     4
283
     0
284
     8
340
F
371
    -1
372
    -1
1001
ACAD_DSTYLE_DIMBREAK
1070
   391
1040
3.75
1001
ACAD_DSTYLE_DIMJAG
1070
   388
1040
1.5
1001
ACAD_DSTYLE_DIMARC_LENGTH_SYMBOL
1070
   379
1070
     1
1001
ACAD_DSTYLE_DIM_LINETYPE
1070
   380
1005
12
1001
ACAD_DSTYLE_DIM_EXT1_LINETYPE
1070
   381
1005
12
1001
ACAD_DSTYLE_DIM_EXT2_LINETYPE
1070
   382
1005
12
  0
DIMSTYLE
105
1B2F
330
A
100
AcDbSymbolTableRecord
100
AcDbDimStyleTableRecord
  2
AM_ISO$7
 70
     0
  4
"
 41
3.5
 42
1.0
 43
10.0
 44
1.0
 47
0.1
 48
0.1
 73
     0
 74
     0
 77
     1
 78
     8
 79
     2
140
3.5
141
0.0
143
0.0393701
146
0.71
147
1.5
172
     1
176
   256
177
   256
178
     2
271
     2
272
     3
274
     4
283
     0
284
     8
340
F
371
    -1
372
    -1
1001
ACAD_DSTYLE_DIMBREAK
1070
   391
1040
3.75
1001
ACAD_DSTYLE_DIMJAG
1070
   388
1040
1.5
1001
ACAD_DSTYLE_DIMARC_LENGTH_SYMBOL
1070
   379
1070
     1
1001
ACAD_DSTYLE_DIM_LINETYPE
1070
   380
1005
12
1001
ACAD_DSTYLE_DIM_EXT1_LINETYPE
1070
   381
1005
12
1001
ACAD_DSTYLE_DIM_EXT2_LINETYPE
1070
   382
1005
12
  0
DIMSTYLE
105
1B30
330
A
100
AcDbSymbolTableRecord
100
AcDbDimStyleTableRecord
  2
AM_ISO$SF
 70
     0
  4
"
 41
3.5
 42
1.0
 43
10.0
 44
1.0
 47
0.1
 48
0.1
 73
     0
 74
     0
 75
     1
 76
     1
 77
     1
 78
     8
 79
     2
140
3.5
141
0.0
143
0.0393701
146
0.71
147
1.5
172
     1
176
   256
177
   256
178
     2
271
     2
272
     3
274
     4
283
     0
284
     8
340
F
371
    -1
372
    -1
1001
ACAD_DSTYLE_DIMBREAK
1070
   391
1040
3.75
1001
ACAD_DSTYLE_DIMJAG
1070
   388
1040
1.5
1001
ACAD_DSTYLE_DIMARC_LENGTH_SYMBOL
1070
   379
1070
     1
1001
ACAD_DSTYLE_DIM_LINETYPE
1070
   380
1005
12
1001
ACAD_DSTYLE_DIM_EXT1_LINETYPE
1070
   381
1005
12
1001
ACAD_DSTYLE_DIM_EXT2_LINETYPE
1070
   382
1005
12
  0
DIMSTYLE
105
1B35
330
A
100
AcDbSymbolTableRecord
100
AcDbDimStyleTableRecord
  2
AM_ISO$SH
 70
     0
  4
"
 41
3.5
 42
1.0
 43
10.0
 44
1.0
 47
0.1
 48
0.1
 73
     0
 74
     0
 75
     1
 76
     1
 77
     1
 78
     8
 79
     2
140
3.5
141
0.0
143
0.0393701
144
2.0
146
0.71
147
1.5
172
     1
173
     1
176
   256
177
   256
178
     2
271
     2
272
     3
274
     4
283
     0
284
     8
340
F
343
1B31
371
    -1
372
    -1
1001
ACAD_DSTYLE_DIMBREAK
1070
   391
1040
3.75
1001
ACAD_DSTYLE_DIMJAG
1070
   388
1040
1.5
1001
ACAD_DSTYLE_DIMARC_LENGTH_SYMBOL
1070
   379
1070
     1
1001
ACAD_DSTYLE_DIM_LINETYPE
1070
   380
1005
12
1001
ACAD_DSTYLE_DIM_EXT1_LINETYPE
1070
   381
1005
12
1001
ACAD_DSTYLE_DIM_EXT2_LINETYPE
1070
   382
1005
12
  0
ENDTAB
  0
TABLE
  2
BLOCK_RECORD
  5
1
330
0
100
AcDbSymbolTable
 70
    61
  0
BLOCK_RECORD
  5
18
330
1
100
AcDbSymbolTableRecord
100
AcDbBlockTableRecord
  2
*MODEL_SPACE
340
19D0
  0
BLOCK_RECORD
  5
15
330
1
100
AcDbSymbolTableRecord
100
AcDbBlockTableRecord
  2
*PAPER_SPACE
340
19D1
  0
BLOCK_RECORD
  5
14BC
330
1
100
AcDbSymbolTableRecord
100
AcDbBlockTableRecord
  2
_OPEN30
340
0
102
{BLKREFS
331
1A06
331
1A07
331
1A1E
331
1A1F
331
1A39
331
1A3A
331
195E
331
195F
102
}
  0
BLOCK_RECORD
  5
1854
330
1
100
AcDbSymbolTableRecord
100
AcDbBlockTableRecord
  2
*D55
340
0
  0
BLOCK_RECORD
  5
1861
330
1
100
AcDbSymbolTableRecord
100
AcDbBlockTableRecord
  2
*D56
340
0
  0
BLOCK_RECORD
  5
1A00
330
1
100
AcDbSymbolTableRecord
100
AcDbBlockTableRecord
  2
*D57
340
0
  0
BLOCK_RECORD
  5
1A0F
330
1
100
AcDbSymbolTableRecord
100
AcDbBlockTableRecord
  2
*D58
340
0
  0
BLOCK_RECORD
  5
1B31
330
1
100
AcDbSymbolTableRecord
100
AcDbBlockTableRecord
  2
GENAXEH
340
0
  0
ENDTAB
  0
ENDSEC
  0
SECTION
  2
BLOCKS
  0
BLOCK
  5
19
330
18
100
AcDbEntity
  8
0
100
AcDbBlockBegin
  2
*MODEL_SPACE
 70
     0
 10
0.0
 20
0.0
 30
0.0
  3
*MODEL_SPACE
  1

  0
ENDBLK
  5
1A
330
18
100
AcDbEntity
  8
0
100
AcDbBlockEnd
  0
BLOCK
  5
16
330
15
100
AcDbEntity
 67
     1
  8
0
100
AcDbBlockBegin
  2
*PAPER_SPACE
 70
     0
 10
0.0
 20
0.0
 30
0.0
  3
*PAPER_SPACE
  1

  0
ENDBLK
  5
17
330
15
100
AcDbEntity
 67
     1
  8
0
100
AcDbBlockEnd
  0
BLOCK
  5
14BD
330
14BC
100
AcDbEntity
  8
0
100
AcDbBlockBegin
  2
_OPEN30
 70
     0
 10
0.0
 20
0.0
 30
0.0
  3
_OPEN30
  1

  0
LINE
  5
14BE
330
14BC
100
AcDbEntity
  8
0
  6
ByBlock
 62
     0
100
AcDbLine
 10
-1.0
 20
0.26794919
 30
0.0
 11
0.0
 21
0.0
 31
0.0
  0
LINE
  5
14BF
330
14BC
100
AcDbEntity
  8
0
  6
ByBlock
 62
     0
100
AcDbLine
 10
0.0
 20
0.0
 30
0.0
 11
-1.0
 21
-0.26794919
 31
0.0
  0
LINE
  5
14C0
330
14BC
100
AcDbEntity
  8
0
  6
ByBlock
 62
     0
100
AcDbLine
 10
0.0
 20
0.0
 30
0.0
 11
-1.0
 21
0.0
 31
0.0
  0
ENDBLK
  5
14C1
330
14BC
100
AcDbEntity
  8
0
100
AcDbBlockEnd
  0
BLOCK
  5
195A
330
1854
100
AcDbEntity
  8
0
100
AcDbBlockBegin
  2
*D55
 70
     1
 10
0.0
 20
0.0
 30
0.0
  3
*D55
  1

  0
LINE
  5
195B
330
1854
100
AcDbEntity
  8
0
  6
ByBlock
 62
     6
100
AcDbLine
 10
1477.05077647556
 20
664.9233711415368
 30
0.0
 11
1477.05077647556
 21
645.5674802282951
 31
0.0
  0
LINE
  5
195C
330
1854
100
AcDbEntity
  8
0
  6
ByBlock
 62
     6
100
AcDbLine
 10
1517.05077647556
 20
664.9233711415368
 30
0.0
 11
1517.05077647556
 21
645.5674802282951
 31
0.0
  0
LINE
  5
195D
330
1854
100
AcDbEntity
  8
0
  6
ByBlock
 62
     6
100
AcDbLine
 10
1483.05077647556
 20
647.5674802282951
 30
0.0
 11
1511.05077647556
 21
647.5674802282951
 31
0.0
  0
INSERT
  5
195E
330
1854
100
AcDbEntity
  8
0
  6
ByBlock
 62
     6
100
AcDbBlockReference
  2
_OPEN30
 10
1477.05077647556
 20
647.5674802282951
 30
0.0
 41
6.0
 42
6.0
 43
6.0
 50
180.0
  0
INSERT
  5
195F
330
1854
100
AcDbEntity
  8
0
  6
ByBlock
 62
     6
100
AcDbBlockReference
  2
_OPEN30
 10
1517.05077647556
 20
647.5674802282951
 30
0.0
 41
6.0
 42
6.0
 43
6.0
  0
MTEXT
  5
1960
102
{ACAD_XDICTIONARY
360
1E27
102
}
330
1854
100
AcDbEntity
  8
0
  6
ByBlock
 62
     3
100
AcDbMText
 10
1497.05077647556
 20
652.5674802282951
 30
0.0
 40
6.0
 41
0.0
 71
     5
 72
     1
  1
\A1;\U+220540
 73
     1
 44
1.0
1001
ACAD
1000
MTEXTBEGIN
1070
    73
1070
     1
1070
    44
1040
1.0
1070
    74
1070
     0
1000
MTEXTEND
  0
POINT
  5
1961
330
1854
100
AcDbEntity
  8
DEFPOINTS
  6
ByBlock
 62
     0
100
AcDbPoint
 10
1477.05077647556
 20
666.9233711415367
 30
0.0
  0
POINT
  5
1962
330
1854
100
AcDbEntity
  8
DEFPOINTS
  6
ByBlock
 62
     0
100
AcDbPoint
 10
1517.05077647556
 20
666.9233711415367
 30
0.0
  0
POINT
  5
1963
330
1854
100
AcDbEntity
  8
DEFPOINTS
  6
ByBlock
 62
     0
100
AcDbPoint
 10
1517.05077647556
 20
647.5674802282951
 30
0.0
  0
ENDBLK
  5
1964
330
1854
100
AcDbEntity
  8
0
100
AcDbBlockEnd
  0
BLOCK
  5
1943
330
1861
100
AcDbEntity
  8
0
100
AcDbBlockBegin
  2
*D56
 70
     1
 10
0.0
 20
0.0
 30
0.0
  3
*D56
  1

  0
LINE
  5
1A36
330
1861
100
AcDbEntity
  8
標註線
 62
     6
370
     9
100
AcDbLine
 10
1475.050776475559
 20
666.9233711415367
 30
0.0
 11
1454.196593560677
 21
666.9233711415367
 31
0.0
  0
LINE
  5
1A37
330
1861
100
AcDbEntity
  8
標註線
 62
     6
370
     9
100
AcDbLine
 10
1477.05077647556
 20
696.9233711415368
 30
0.0
 11
1454.196593560677
 21
696.9233711415368
 31
0.0
  0
LINE
  5
1A38
330
1861
100
AcDbEntity
  8
標註線
 62
     6
370
     9
100
AcDbLine
 10
1456.196593560678
 20
672.9233711415368
 30
0.0
 11
1456.196593560678
 21
690.9233711415367
 31
0.0
  0
INSERT
  5
1A39
330
1861
100
AcDbEntity
  8
標註線
 62
     6
370
     9
100
AcDbBlockReference
  2
_OPEN30
 10
1456.196593560678
 20
666.9233711415367
 30
0.0
 41
6.0
 42
6.0
 43
6.0
 50
270.0
  0
INSERT
  5
1A3A
330
1861
100
AcDbEntity
  8
標註線
 62
     6
370
     9
100
AcDbBlockReference
  2
_OPEN30
 10
1456.196593560678
 20
696.9233711415368
 30
0.0
 41
6.0
 42
6.0
 43
6.0
 50
90.0
  0
MTEXT
  5
1A3B
330
1861
100
AcDbEntity
  8
標註線
 62
     3
100
AcDbMText
 10
1451.196593560677
 20
681.923371141537
 30
0.0
 40
6.0
 41
0.0
 71
     5
 72
     1
  1
\A1;30
 11
0.0000000000000001
 21
1.0
 31
0.0
 73
     1
 44
1.0
1001
ACAD
1000
MTEXTBEGIN
1070
    73
1070
     1
1070
    44
1040
1.0
1070
    74
1070
     0
1000
MTEXTEND
  0
POINT
  5
1A3C
330
1861
100
AcDbEntity
  8
DEFPOINTS
 62
     0
100
AcDbPoint
 10
1477.05077647556
 20
666.9233711415367
 30
0.0
  0
POINT
  5
1A3D
330
1861
100
AcDbEntity
  8
DEFPOINTS
 62
     0
100
AcDbPoint
 10
1479.05077647556
 20
696.9233711415368
 30
0.0
  0
POINT
  5
1A3E
330
1861
100
AcDbEntity
  8
DEFPOINTS
 62
     0
100
AcDbPoint
 10
1456.196593560678
 20
696.9233711415368
 30
0.0
  0
ENDBLK
  5
194D
330
1861
100
AcDbEntity
  8
0
100
AcDbBlockEnd
  0
BLOCK
  5
1A0C
330
1A00
100
AcDbEntity
  8
0
100
AcDbBlockBegin
  2
*D57
 70
     1
 10
0.0
 20
0.0
 30
0.0
  3
*D57
  1

  0
LINE
  5
1A01
330
1A00
100
AcDbEntity
  8
0
 62
     6
370
    -2
100
AcDbLine
 10
1519.05077647556
 20
666.9233711415367
 30
0.0
 11
1566.125395695268
 21
666.9233711415367
 31
0.0
  0
LINE
  5
1A02
330
1A00
100
AcDbEntity
  8
0
 62
     6
370
    -2
100
AcDbLine
 10
1545.15077647556
 20
681.9233711415368
 30
0.0
 11
1566.125395695268
 21
681.9233711415368
 31
0.0
  0
LINE
  5
1A03
330
1A00
100
AcDbEntity
  8
0
 62
     6
370
    -2
100
AcDbLine
 10
1564.125395695268
 20
660.9233711415368
 30
0.0
 11
1564.125395695268
 21
654.9233711415368
 31
0.0
  0
LINE
  5
1A04
330
1A00
100
AcDbEntity
  8
0
 62
     6
370
    -2
100
AcDbLine
 10
1564.125395695268
 20
687.9233711415367
 30
0.0
 11
1564.125395695268
 21
705.9233711415368
 31
0.0
  0
LINE
  5
1A05
330
1A00
100
AcDbEntity
  8
0
 62
     6
370
    -2
100
AcDbLine
 10
1564.125395695268
 20
666.9233711415367
 30
0.0
 11
1564.125395695268
 21
681.9233711415368
 31
0.0
  0
INSERT
  5
1A06
330
1A00
100
AcDbEntity
  8
0
 62
     6
370
    -2
100
AcDbBlockReference
  2
_OPEN30
 10
1564.125395695268
 20
666.9233711415367
 30
0.0
 41
6.0
 42
6.0
 43
6.0
 50
90.0
  0
INSERT
  5
1A07
330
1A00
100
AcDbEntity
  8
0
 62
     6
370
    -2
100
AcDbBlockReference
  2
_OPEN30
 10
1564.125395695268
 20
681.9233711415368
 30
0.0
 41
6.0
 42
6.0
 43
6.0
 50
270.0
  0
MTEXT
  5
1A08
330
1A00
100
AcDbEntity
  8
0
 62
     3
100
AcDbMText
 10
1559.125395695267
 20
699.923371141537
 30
0.0
 40
6.0
 41
0.0
 71
     5
 72
     1
  1
\A1;15
 11
0.0000000000000001
 21
1.0
 31
0.0
 73
     1
 44
1.0
1001
ACAD
1000
MTEXTBEGIN
1070
    73
1070
     1
1070
    44
1040
1.0
1070
    74
1070
     0
1000
MTEXTEND
  0
POINT
  5
1A09
330
1A00
100
AcDbEntity
  8
DEFPOINTS
 62
     0
100
AcDbPoint
 10
1517.05077647556
 20
666.9233711415367
 30
0.0
  0
POINT
  5
1A0A
330
1A00
100
AcDbEntity
  8
DEFPOINTS
 62
     0
100
AcDbPoint
 10
1543.15077647556
 20
681.9233711415368
 30
0.0
  0
POINT
  5
1A0B
330
1A00
100
AcDbEntity
  8
DEFPOINTS
 62
     0
100
AcDbPoint
 10
1564.125395695268
 20
681.9233711415368
 30
0.0
  0
ENDBLK
  5
1A0D
330
1A00
100
AcDbEntity
  8
0
100
AcDbBlockEnd
  0
BLOCK
  5
1A19
330
1A0F
100
AcDbEntity
  8
0
100
AcDbBlockBegin
  2
*D58
 70
     1
 10
0.0
 20
0.0
 30
0.0
  3
*D58
  1

  0
LINE
  5
1A1B
330
1A0F
100
AcDbEntity
  8
0
 62
     6
370
    -2
100
AcDbLine
 10
1521.05077647556
 20
666.9233711415367
 30
0.0
 11
1584.113527878135
 21
666.9233711415367
 31
0.0
  0
LINE
  5
1A1C
330
1A0F
100
AcDbEntity
  8
0
 62
     6
370
    -2
100
AcDbLine
 10
1513.265752933364
 20
869.5164114493232
 30
0.0
 11
1584.113527878135
 21
869.5164114493232
 31
0.0
  0
LINE
  5
1A1D
330
1A0F
100
AcDbEntity
  8
0
 62
     6
370
    -2
100
AcDbLine
 10
1582.113527878135
 20
672.9233711415368
 30
0.0
 11
1582.113527878135
 21
863.5164114493232
 31
0.0
  0
INSERT
  5
1A1E
330
1A0F
100
AcDbEntity
  8
0
 62
     6
370
    -2
100
AcDbBlockReference
  2
_OPEN30
 10
1582.113527878135
 20
666.9233711415367
 30
0.0
 41
6.0
 42
6.0
 43
6.0
 50
270.0
  0
INSERT
  5
1A1F
330
1A0F
100
AcDbEntity
  8
0
 62
     6
370
    -2
100
AcDbBlockReference
  2
_OPEN30
 10
1582.113527878135
 20
869.5164114493232
 30
0.0
 41
6.0
 42
6.0
 43
6.0
 50
90.0
  0
MTEXT
  5
1A20
330
1A0F
100
AcDbEntity
  8
0
 62
     3
100
AcDbMText
 10
1577.113527878134
 20
768.2198912954302
 30
0.0
 40
6.0
 41
0.0
 71
     5
 72
     1
  1
\A1;295
 11
0.0000000000000001
 21
1.0
 31
0.0
 73
     1
 44
1.0
1001
ACAD
1000
MTEXTBEGIN
1070
    73
1070
     1
1070
    44
1040
1.0
1070
    74
1070
     0
1000
MTEXTEND
  0
POINT
  5
1A21
330
1A0F
100
AcDbEntity
  8
DEFPOINTS
 62
     0
100
AcDbPoint
 10
1519.05077647556
 20
666.9233711415367
 30
0.0
  0
POINT
  5
1A22
330
1A0F
100
AcDbEntity
  8
DEFPOINTS
 62
     0
100
AcDbPoint
 10
1511.265752933363
 20
869.5164114493232
 30
0.0
  0
POINT
  5
1A23
330
1A0F
100
AcDbEntity
  8
DEFPOINTS
 62
     0
100
AcDbPoint
 10
1582.113527878135
 20
869.5164114493232
 30
0.0
  0
ENDBLK
  5
1A1A
330
1A0F
100
AcDbEntity
  8
0
100
AcDbBlockEnd
  0
BLOCK
  5
1B33
330
1B31
100
AcDbEntity
  8
0
100
AcDbBlockBegin
  2
GENAXEH
 70
     0
 10
0.0
 20
0.0
 30
0.0
  3
GENAXEH
  1

  0
LINE
  5
1B32
330
1B31
100
AcDbEntity
  8
0
100
AcDbLine
 10
-1.0
 20
0.0
 30
0.0
 11
1.0
 21
0.0
 31
0.0
  0
ENDBLK
  5
1B34
330
1B31
100
AcDbEntity
  8
0
100
AcDbBlockEnd
  0
ENDSEC
  0
SECTION
  2
ENTITIES
  0
LINE
  5
D4B
330
18
100
AcDbEntity
  8
本体外線
100
AcDbLine
 10
1517.05077647556
 20
666.9233711415367
 30
0.0
 11
1517.05077647556
 21
694.9233711415367
 31
0.0
  0
LINE
  5
D4C
330
18
100
AcDbEntity
  8
本体外線
100
AcDbLine
 10
1477.05077647556
 20
666.9233711415367
 30
0.0
 11
1477.05077647556
 21
694.9233711415367
 31
0.0
  0
LINE
  5
D57
330
18
100
AcDbEntity
  8
本体外線
100
AcDbLine
 10
1538.15077647556
 20
686.4233711415367
 30
0.0
 11
1538.15077647556
 21
677.4233711415368
 31
0.0
  0
LINE
  5
D58
330
18
100
AcDbEntity
  8
本体外線
100
AcDbLine
 10
1533.15077647556
 20
686.4233711415367
 30
0.0
 11
1533.15077647556
 21
677.4233711415368
 31
0.0
  0
LINE
  5
D59
330
18
100
AcDbEntity
  8
本体外線
100
AcDbLine
 10
1537.15077647556
 20
686.4233711415367
 30
0.0
 11
1537.15077647556
 21
677.4233711415368
 31
0.0
  0
LINE
  5
D5A
330
18
100
AcDbEntity
  8
本体外線
100
AcDbLine
 10
1542.150776475559
 20
685.3733711415368
 30
0.0
 11
1542.150776475559
 21
678.4733711415367
 31
0.0
  0
ARC
  5
D5B
330
18
100
AcDbEntity
  8
本体外線
100
AcDbCircle
 10
1522.05077647556
 20
681.9233711415368
 30
0.0
 40
5.0
100
AcDbArc
 50
144.7356103172446
 51
215.2643896827538
  0
ARC
  5
D5C
330
18
100
AcDbEntity
  8
本体外線
100
AcDbCircle
 10
1517.15077647556
 20
681.9233711415368
 30
0.0
 40
5.0
100
AcDbArc
 50
324.7356103172462
 51
35.2643896827554
  0
LINE
  5
D5D
330
18
100
AcDbEntity
  8
本体外線
100
AcDbLine
 10
1522.15077647556
 20
686.7873711415368
 30
0.0
 11
1522.15077647556
 21
677.0593711415367
 31
0.0
  0
LINE
  5
D5E
330
18
100
AcDbEntity
  8
本体外線
100
AcDbLine
 10
1517.05077647556
 20
686.7873711415368
 30
0.0
 11
1517.05077647556
 21
677.0593711415367
 31
0.0
  0
LINE
  5
D5F
330
18
100
AcDbEntity
  8
本体外線
100
AcDbLine
 10
1523.15077647556
 20
686.4233711415367
 30
0.0
 11
1523.15077647556
 21
677.4233711415368
 31
0.0
  0
LINE
  5
D60
330
18
100
AcDbEntity
  8
本体外線
100
AcDbLine
 10
1528.150776475559
 20
686.4233711415367
 30
0.0
 11
1528.150776475559
 21
677.4233711415368
 31
0.0
  0
LINE
  5
D61
330
18
100
AcDbEntity
  8
本体外線
100
AcDbLine
 10
1527.15077647556
 20
686.4233711415367
 30
0.0
 11
1527.15077647556
 21
677.4233711415368
 31
0.0
  0
LINE
  5
D62
330
18
100
AcDbEntity
  8
本体外線
100
AcDbLine
 10
1532.15077647556
 20
686.4233711415367
 30
0.0
 11
1532.15077647556
 21
677.4233711415368
 31
0.0
  0
MTEXT
  5
D63
330
18
100
AcDbEntity
  8
0
 48
2.0
370
    25
100
AcDbMText
 10
1565.405691920364
 20
584.5290263589541
 30
0.0
 40
5.999108403293985
 41
0.0
 71
     5
 72
     1
  1
\Ftxt.shx,bigfont.shx|c128;N N 1 0 4 8 4 
 73
     1
 44
1.0
1001
ACAD
1000
MTEXTBEGIN
1070
    73
1070
     1
1070
    44
1040
1.0
1070
    74
1070
     0
1000
MTEXTEND
  0
LINE
  5
D64
330
18
100
AcDbEntity
  8
0
100
AcDbLine
 10
1348.572843494033
 20
597.2778346102894
 30
0.0
 11
1645.528709457085
 21
597.2778346102894
 31
0.0
  0
LINE
  5
D65
330
18
100
AcDbEntity
  8
0
100
AcDbLine
 10
1348.572843494033
 20
627.2733766267593
 30
0.0
 11
1645.528709457085
 21
627.2733766267593
 31
0.0
  0
MTEXT
  5
D6A
102
{ACAD_XDICTIONARY
360
1DEB
102
}
330
18
100
AcDbEntity
  8
0
100
AcDbMText
 10
1351.937542037986
 20
607.5382824022778
 30
0.0
 40
6.748996953705733
 41
0.0
 71
     1
 72
     5
  1
\Ftxt.shx,bigfont.shx|c128;\M+190BB \M+1907D
  7
JL
 73
     1
 44
1.0
1001
ACAD
1000
MTEXTBEGIN
1070
    73
1070
     1
1070
    44
1040
1.0
1070
    74
1070
     0
1000
MTEXTEND
  0
MTEXT
  5
D6B
102
{ACAD_XDICTIONARY
360
1DED
102
}
330
18
100
AcDbEntity
  8
0
100
AcDbMText
 10
1351.718172466895
 20
622.5711496635577
 30
0.0
 40
6.748996953705733
 41
0.0
 71
     1
 72
     5
  1
\Ftxt.shx,bigfont.shx|c128;\M+193FA \M+19574
  7
JL
 73
     1
 44
1.0
1001
ACAD
1000
MTEXTBEGIN
1070
    73
1070
     1
1070
    44
1040
1.0
1070
    74
1070
     0
1000
MTEXTEND
  0
LINE
  5
D6C
330
18
100
AcDbEntity
  8
0
100
AcDbLine
 10
1348.572843494033
 20
612.2756056185244
 30
0.0
 11
1492.551445173089
 21
612.2756056185244
 31
0.0
  0
MTEXT
  5
D6F
102
{ACAD_XDICTIONARY
360
1DEF
102
}
330
18
100
AcDbEntity
  8
0
100
AcDbMText
 10
1372.096866110889
 20
592.1851385047216
 30
0.0
 40
8.998662604940978
 41
0.0
 71
     1
 72
     5
  1
\Ftxt.shx,bigfont.shx|c128;\M+193FA\M+18B40\M+18A94\M+18EAE\M+189EF\M+18ED0
  7
LKK
 73
     1
 44
1.0
1001
ACAD
1000
MTEXTBEGIN
1070
    73
1070
     1
1070
    44
1040
1.0
1070
    74
1070
     0
1000
MTEXTEND
  0
LINE
  5
D70
330
18
100
AcDbEntity
  8
0
370
    25
100
AcDbLine
 10
1406.94001573816
 20
619.3096176865698
 30
0.0
 11
1417.231772089017
 21
619.3096176865701
 31
0.0
  0
MTEXT
  5
D71
330
18
100
AcDbEntity
  8
0
 48
2.0
100
AcDbMText
 10
1382.026394873119
 20
619.1232116890168
 30
0.0
 40
4.499331302470489
 41
0.0
 71
     5
 72
     1
  1
\Ftxt.shx,bigfont.shx|c128;051107
 73
     1
 44
1.0
1001
ACAD
1000
MTEXTBEGIN
1070
    73
1070
     1
1070
    44
1040
1.0
1070
    74
1070
     0
1000
MTEXTEND
  0
LINE
  5
D72
330
18
100
AcDbEntity
  8
0
100
AcDbLine
 10
1366.570168703915
 20
627.2733766267593
 30
0.0
 11
1366.570168703915
 21
597.2778346102894
 31
0.0
  0
LINE
  5
D74
330
18
100
AcDbEntity
  8
0
100
AcDbLine
 10
1414.563035930267
 20
612.2756056185244
 30
0.0
 11
1414.563035930267
 21
597.2778346102894
 31
0.0
  0
LINE
  5
D75
330
18
100
AcDbEntity
  8
0
100
AcDbLine
 10
1396.565710720385
 20
627.2733766267593
 30
0.0
 11
1396.565710720385
 21
597.2778346102894
 31
0.0
  0
MTEXT
  5
D76
102
{ACAD_XDICTIONARY
360
1DF1
102
}
330
18
100
AcDbEntity
  8
0
100
AcDbMText
 10
1401.514873222908
 20
608.1023096920319
 30
0.0
 40
6.748996953705733
 41
0.0
 71
     1
 72
     5
  1
\Ftxt.shx,bigfont.shx|c128;\M+18C9F \M+1907D
  7
JL
 73
     1
 44
1.0
1001
ACAD
1000
MTEXTBEGIN
1070
    73
1070
     1
1070
    44
1040
1.0
1070
    74
1070
     0
1000
MTEXTEND
  0
LINE
  5
D77
330
18
100
AcDbEntity
  8
0
370
    25
100
AcDbLine
 10
1411.936671312348
 20
614.3252219769821
 30
0.0
 11
1411.936671312348
 21
623.9773656346084
 31
0.0
  0
CIRCLE
  5
D78
330
18
100
AcDbEntity
  8
0
100
AcDbCircle
 10
1411.936671312348
 20
619.3096176865698
 30
0.0
 40
3.998258559453206
  0
CIRCLE
  5
D79
330
18
100
AcDbEntity
  8
0
100
AcDbCircle
 10
1411.936671312348
 20
619.3096176865698
 30
0.0
 40
1.999129279726603
  0
LINE
  5
D7A
330
18
100
AcDbEntity
  8
0
100
AcDbLine
 10
1424.931011630571
 20
617.3104884068434
 30
0.0
 11
1432.927528749477
 21
615.311359127117
 31
0.0
  0
LINE
  5
D7B
330
18
100
AcDbEntity
  8
0
 48
5.0
100
AcDbLine
 10
1424.931011630571
 20
621.3087469662966
 30
0.0
 11
1432.927528749477
 21
623.3078762460232
 31
0.0
  0
LINE
  5
D7C
330
18
100
AcDbEntity
  8
0
370
    25
100
AcDbLine
 10
1423.780379121418
 20
619.3096176865701
 30
0.0
 11
1433.645418576057
 21
619.3096176865701
 31
0.0
  0
LINE
  5
D7D
330
18
100
AcDbEntity
  8
0
370
    25
100
AcDbLine
 10
1424.931011630571
 20
617.3104884068434
 30
0.0
 11
1424.931011630571
 21
621.3087469662966
 31
0.0
  0
LINE
  5
D7E
330
18
100
AcDbEntity
  8
0
370
    25
100
AcDbLine
 10
1432.927528749477
 20
615.311359127117
 30
0.0
 11
1432.927528749477
 21
623.3078762460232
 31
0.0
  0
LINE
  5
D7F
330
18
100
AcDbEntity
  8
0
100
AcDbLine
 10
1462.555903156619
 20
627.2733766267593
 30
0.0
 11
1462.555903156619
 21
597.2778346102894
 31
0.0
  0
LINE
  5
D80
330
18
100
AcDbEntity
  8
0
100
AcDbLine
 10
1444.558577946737
 20
627.2733766267593
 30
0.0
 11
1444.558577946737
 21
597.2778346102894
 31
0.0
  0
MTEXT
  5
D81
102
{ACAD_XDICTIONARY
360
1DF3
102
}
330
18
100
AcDbEntity
  8
0
100
AcDbMText
 10
1448.459781802502
 20
608.1023096920319
 30
0.0
 40
6.748996953705733
 41
0.0
 71
     1
 72
     5
  1
\Ftxt.shx,bigfont.shx|c128;\M+18FB3 \M+19446
  7
JL
 73
     1
 44
1.0
1001
ACAD
1000
MTEXTBEGIN
1070
    73
1070
     1
1070
    44
1040
1.0
1070
    74
1070
     0
1000
MTEXTEND
  0
MTEXT
  5
D82
102
{ACAD_XDICTIONARY
360
1DF5
102
}
330
18
100
AcDbEntity
  8
0
100
AcDbMText
 10
1448.021046742906
 20
622.7903740033477
 30
0.0
 40
6.748996953705733
 41
0.0
 71
     1
 72
     5
  1
\Ftxt.shx,bigfont.shx|c128;\M+18EDA \M+19378
  7
JL
 73
     1
 44
1.0
1001
ACAD
1000
MTEXTBEGIN
1070
    73
1070
     1
1070
    44
1040
1.0
1070
    74
1070
     0
1000
MTEXTEND
  0
MTEXT
  5
D88
102
{ACAD_XDICTIONARY
360
1DF7
102
}
330
18
100
AcDbEntity
  8
0
 48
2.0
100
AcDbMText
 10
1531.491681092337
 20
607.6445932739243
 30
0.0
 40
5.999108403293985
 41
0.0
 71
     5
 72
     1
  1
\Ftxt.shx,bigfont.shx|c128;\M+18140\M+1837D\M+1834F\M+1836C\M+18362\M+18367\M+18358\M+1835E\M+18393\M+18368\M+18EAE\P    \M+1834E\M+1815B\M+18389\M+18393\M+18367\M+1836D\M+18359\M+1838B\M+18140
 73
     1
 44
1.0
1001
ACAD
1000
MTEXTBEGIN
1070
    73
1070
     1
1070
    44
1040
1.0
1070
    74
1070
     0
1000
MTEXTEND
  0
MTEXT
  5
D89
102
{ACAD_XDICTIONARY
360
1DF9
102
}
330
18
100
AcDbEntity
  8
0
100
AcDbMText
 10
1495.036614167413
 20
596.0080055040777
 30
0.0
 40
7.498885504117481
 41
0.0
 71
     1
 72
     5
  1
\Ftxt.shx,bigfont.shx|c128;\M+1907D  \M+196CA  \M+194D4  \M+18D86
  7
JL
 73
     1
 44
1.0
1001
ACAD
1000
MTEXTBEGIN
1070
    73
1070
     1
1070
    44
1040
1.0
1070
    74
1070
     0
1000
MTEXTEND
  0
LINE
  5
D8A
330
18
100
AcDbEntity
  8
0
100
AcDbLine
 10
1492.551445173089
 20
627.2733766267593
 30
0.0
 11
1492.551445173089
 21
579.5670292337774
 31
0.0
  0
MTEXT
  5
D8B
102
{ACAD_XDICTIONARY
360
1DFB
102
}
330
18
100
AcDbEntity
  8
0
370
    25
100
AcDbMText
 10
1494.246125039111
 20
624.4567818450365
 30
0.0
 40
7.498885504117481
 41
0.0
 71
     1
 72
     5
  1
\Ftxt.shx,bigfont.shx|c128;\M+19569  \M+196BC
  7
JL
 73
     1
 44
1.0
1001
ACAD
1000
MTEXTBEGIN
1070
    73
1070
     1
1070
    44
1040
1.0
1070
    74
1070
     0
1000
MTEXTEND
  0
LINE
  5
D8C
330
18
100
AcDbEntity
  8
0
100
AcDbLine
 10
1578.374030374948
 20
627.2733766267593
 30
0.0
 11
1578.374030374948
 21
597.2778346102894
 31
0.0
  0
LINE
  5
D8F
330
18
100
AcDbEntity
  8
本体外線
100
AcDbLine
 10
1477.05077647556
 20
666.9233711415367
 30
0.0
 11
1517.05077647556
 21
666.9233711415367
 31
0.0
  0
LINE
  5
D90
330
18
100
AcDbEntity
  8
本体外線
100
AcDbLine
 10
1532.15077647556
 20
678.4733711415367
 30
0.0
 11
1528.150776475559
 21
677.4233711415368
 31
0.0
  0
LINE
  5
D91
330
18
100
AcDbEntity
  8
本体外線
100
AcDbLine
 10
1517.968293570921
 20
679.0366197955886
 30
0.0
 11
1521.233259380198
 21
679.0366197955886
 31
0.0
  0
LINE
  5
D92
330
18
100
AcDbEntity
  8
本体外線
100
AcDbLine
 10
1517.736948679635
 20
676.1498684496404
 30
0.0
 11
1521.464604271485
 21
676.1498684496404
 31
0.0
  0
LINE
  5
D93
330
18
100
AcDbEntity
  8
本体外線
100
AcDbLine
 10
1517.05077647556
 20
677.0593711415367
 30
0.0
 11
1517.736948679635
 21
676.1498684496404
 31
0.0
  0
ARC
  5
D94
330
18
100
AcDbEntity
  8
本体外線
100
AcDbCircle
 10
1518.64484538632
 20
677.5932441226143
 30
0.0
 40
1.594068910760485
100
AcDbArc
 50
115.1138412446869
 51
244.8861587553131
  0
LINE
  5
D95
330
18
100
AcDbEntity
  8
本体外線
100
AcDbLine
 10
1527.15077647556
 20
677.4233711415368
 30
0.0
 11
1528.150776475559
 21
677.4233711415368
 31
0.0
  0
LINE
  5
D96
330
18
100
AcDbEntity
  8
本体外線
100
AcDbLine
 10
1523.15077647556
 20
677.4233711415368
 30
0.0
 11
1522.15077647556
 21
677.4233711415368
 31
0.0
  0
LINE
  5
D97
330
18
100
AcDbEntity
  8
本体外線
100
AcDbLine
 10
1527.15077647556
 20
678.4733711415367
 30
0.0
 11
1523.15077647556
 21
677.4233711415368
 31
0.0
  0
LINE
  5
D98
330
18
100
AcDbEntity
  8
本体外線
100
AcDbLine
 10
1522.15077647556
 20
677.0593711415367
 30
0.0
 11
1521.464604271485
 21
676.1498684496404
 31
0.0
  0
ARC
  5
D99
330
18
100
AcDbEntity
  8
本体外線
100
AcDbCircle
 10
1520.556707564799
 20
677.5932441226143
 30
0.0
 40
1.594068910760485
100
AcDbArc
 50
295.1138412446869
 51
64.8861587553131
  0
LINE
  5
D9A
330
18
100
AcDbEntity
  8
本体外線
100
AcDbLine
 10
1542.150776475559
 20
678.4733711415367
 30
0.0
 11
1538.15077647556
 21
677.4233711415368
 31
0.0
  0
LINE
  5
D9B
330
18
100
AcDbEntity
  8
本体外線
100
AcDbLine
 10
1538.15077647556
 20
677.4233711415368
 30
0.0
 11
1537.15077647556
 21
677.4233711415368
 31
0.0
  0
LINE
  5
D9C
330
18
100
AcDbEntity
  8
本体外線
100
AcDbLine
 10
1537.15077647556
 20
678.4733711415367
 30
0.0
 11
1533.15077647556
 21
677.4233711415368
 31
0.0
  0
LINE
  5
D9D
330
18
100
AcDbEntity
  8
本体外線
100
AcDbLine
 10
1533.15077647556
 20
677.4233711415368
 30
0.0
 11
1532.15077647556
 21
677.4233711415368
 31
0.0
  0
MTEXT
  5
DB8
102
{ACAD_XDICTIONARY
360
1DFD
102
}
330
18
100
AcDbEntity
  8
0
100
AcDbMText
 10
1607.637513131525
 20
596.0687989132691
 30
0.0
 40
7.498885504117481
 41
0.0
 71
     1
 72
     5
  1
\Ftxt.shx,bigfont.shx|c128;\M+195CF\M+18D58
  7
JL
 73
     1
 44
1.0
1001
ACAD
1000
MTEXTBEGIN
1070
    73
1070
     1
1070
    44
1040
1.0
1070
    74
1070
     0
1000
MTEXTEND
  0
LINE
  5
DB9
330
18
100
AcDbEntity
  8
0
100
AcDbLine
 10
1605.034727734851
 20
597.2914380061728
 30
0.0
 11
1605.034727734851
 21
579.2805094004075
 31
0.0
  0
LINE
  5
DBA
330
18
100
AcDbEntity
  8
0
 48
2.0
370
    25
100
AcDbLine
 10
1627.67908282442
 20
592.2324335942467
 30
0.0
 11
1632.429013993051
 21
582.7325712569857
 31
0.0
  0
LINE
  5
DBB
330
18
100
AcDbEntity
  8
0
 48
2.0
370
    25
100
AcDbLine
 10
1627.67908282442
 20
592.2324335942467
 30
0.0
 11
1622.929151655791
 21
582.7325712569857
 31
0.0
  0
MTEXT
  5
DBC
102
{ACAD_XDICTIONARY
360
1DFF
102
}
330
18
100
AcDbEntity
  8
0
100
AcDbMText
 10
1627.400962452066
 20
588.6786307502652
 30
0.0
 40
5.039251058766947
 41
2.69383963741513
 71
     1
 72
     5
  1
{\Ftxt,bigfont|c128;\M+18250}
  7
p
 73
     1
 44
1.0
1001
ACAD
1000
MTEXTBEGIN
1070
    73
1070
     1
1070
    44
1040
1.0
1070
    74
1070
     0
1000
MTEXTEND
  0
LINE
  5
DBD
330
18
100
AcDbEntity
  8
0
 48
2.0
370
    25
100
AcDbLine
 10
1622.929151655791
 20
582.7325712569857
 30
0.0
 11
1632.429013993051
 21
582.7325712569857
 31
0.0
  0
MTEXT
  5
DBE
330
18
100
AcDbEntity
  8
0
 48
2.0
370
    25
100
AcDbMText
 10
1611.513326318409
 20
609.1682274943395
 30
0.0
 40
5.999108403293985
 41
0.0
 71
     5
 72
     1
  1
\Ftxt.shx,bigfont.shx|c128; NM-C1
 73
     1
 44
1.0
1001
ACAD
1000
MTEXTBEGIN
1070
    73
1070
     1
1070
    44
1040
1.0
1070
    74
1070
     0
1000
MTEXTEND
  0
MTEXT
  5
DBF
102
{ACAD_XDICTIONARY
360
1E01
102
}
330
18
100
AcDbEntity
  8
0
370
    25
100
AcDbMText
 10
1581.906868599823
 20
624.1250453785635
 30
0.0
 40
7.498885504117481
 41
0.0
 71
     1
 72
     5
  1
\Ftxt.shx,bigfont.shx|c128;\M+18C5E  \M+194D4
  7
JL
 73
     1
 44
1.0
1001
ACAD
1000
MTEXTBEGIN
1070
    73
1070
     1
1070
    44
1040
1.0
1070
    74
1070
     0
1000
MTEXTEND
  0
LINE
  5
E4E
330
18
100
AcDbEntity
  8
0
100
AcDbLine
 10
1348.572843494033
 20
996.2185434293392
 30
0.0
 11
1645.528709457085
 21
996.2185434293393
 31
0.0
  0
LINE
  5
E4F
330
18
100
AcDbEntity
  8
0
100
AcDbLine
 10
1348.572843494033
 20
981.8206832614334
 30
0.0
 11
1645.528709457085
 21
981.8206832614334
 31
0.0
  0
LINE
  5
E50
330
18
100
AcDbEntity
  8
0
100
AcDbLine
 10
1348.572843494033
 20
967.422823093528
 30
0.0
 11
1645.528709457085
 21
967.422823093528
 31
0.0
  0
LINE
  5
E51
330
18
100
AcDbEntity
  8
0
100
AcDbLine
 10
1348.572843494033
 20
953.0249629256225
 30
0.0
 11
1645.528709457085
 21
953.0249629256225
 31
0.0
  0
LINE
  5
E52
330
18
100
AcDbEntity
  8
0
100
AcDbLine
 10
1348.572843494033
 20
938.6271027577167
 30
0.0
 11
1645.528709457085
 21
938.6271027577167
 31
0.0
  0
LINE
  5
E53
330
18
100
AcDbEntity
  8
0
100
AcDbLine
 10
1348.572843494033
 20
924.2292425898112
 30
0.0
 11
1645.528709457085
 21
924.2292425898112
 31
0.0
  0
LINE
  5
E54
330
18
100
AcDbEntity
  8
0
100
AcDbLine
 10
1348.572843494033
 20
909.8313824219056
 30
0.0
 11
1645.528709457085
 21
909.8313824219056
 31
0.0
  0
MTEXT
  5
E55
102
{ACAD_XDICTIONARY
360
1E03
102
}
330
18
100
AcDbEntity
  8
0
100
AcDbMText
 10
1352.548603795747
 20
1008.975993147096
 30
0.0
 40
10.79839512592917
 41
0.0
 71
     1
 72
     5
  1
\Ftxt.shx,bigfont.shx|c128;\M+18FC6   \M+18D86
  7
JL
 73
     1
 44
1.0
1001
ACAD
1000
MTEXTBEGIN
1070
    73
1070
     1
1070
    44
1040
1.0
1070
    74
1070
     0
1000
MTEXTEND
  0
MTEXT
  5
E56
330
18
100
AcDbEntity
  8
0
100
AcDbMText
 10
1360.530579437694
 20
978.5343676442451
 30
0.0
 40
8.998662604940978
 41
0.0
 71
     1
 72
     5
  1
\Ftxt.shx,bigfont.shx|c128;2
  7
JL
 73
     1
 44
1.0
1001
ACAD
1000
MTEXTBEGIN
1070
    73
1070
     1
1070
    44
1040
1.0
1070
    74
1070
     0
1000
MTEXTEND
  0
MTEXT
  5
E57
330
18
100
AcDbEntity
  8
0
100
AcDbMText
 10
1360.682239365128
 20
949.9269244263052
 30
0.0
 40
8.998662604940978
 41
0.0
 71
     1
 72
     5
  1
\Ftxt.shx,bigfont.shx|c128;4
  7
JL
 73
     1
 44
1.0
1001
ACAD
1000
MTEXTBEGIN
1070
    73
1070
     1
1070
    44
1040
1.0
1070
    74
1070
     0
1000
MTEXTEND
  0
MTEXT
  5
E58
330
18
100
AcDbEntity
  8
0
100
AcDbMText
 10
1360.682239365128
 20
964.3247845942106
 30
0.0
 40
8.998662604940978
 41
0.0
 71
     1
 72
     5
  1
\Ftxt.shx,bigfont.shx|c128;3
  7
JL
 73
     1
 44
1.0
1001
ACAD
1000
MTEXTBEGIN
1070
    73
1070
     1
1070
    44
1040
1.0
1070
    74
1070
     0
1000
MTEXTEND
  0
MTEXT
  5
E59
330
18
100
AcDbEntity
  8
0
100
AcDbMText
 10
1360.682239365128
 20
935.5290642583998
 30
0.0
 40
8.998662604940978
 41
0.0
 71
     1
 72
     5
  1
\Ftxt.shx,bigfont.shx|c128;5
  7
JL
 73
     1
 44
1.0
1001
ACAD
1000
MTEXTBEGIN
1070
    73
1070
     1
1070
    44
1040
1.0
1070
    74
1070
     0
1000
MTEXTEND
  0
MTEXT
  5
E5A
330
18
100
AcDbEntity
  8
0
100
AcDbMText
 10
1360.682239365128
 20
921.1312040904941
 30
0.0
 40
8.998662604940978
 41
0.0
 71
     1
 72
     5
  1
\Ftxt.shx,bigfont.shx|c128;6
  7
JL
 73
     1
 44
1.0
1001
ACAD
1000
MTEXTBEGIN
1070
    73
1070
     1
1070
    44
1040
1.0
1070
    74
1070
     0
1000
MTEXTEND
  0
LINE
  5
E64
330
18
100
AcDbEntity
  8
本体外線
100
AcDbLine
 10
1489.060776475559
 20
787.0213879071284
 30
0.0
 11
1492.224511252843
 21
794.3513879071283
 31
0.0
  0
LINE
  5
E65
330
18
100
AcDbEntity
  8
本体外線
100
AcDbLine
 10
1505.040776475559
 20
787.0213879071284
 30
0.0
 11
1501.877041698275
 21
794.3513879071283
 31
0.0
  0
LINE
  5
E6A
330
18
100
AcDbEntity
  8
本体外線
100
AcDbLine
 10
1489.060776475559
 20
729.0213879071284
 30
0.0
 11
1492.224511252843
 21
736.3513879071283
 31
0.0
  0
LINE
  5
E6B
330
18
100
AcDbEntity
  8
本体外線
100
AcDbLine
 10
1505.040776475559
 20
729.0213879071284
 30
0.0
 11
1501.877041698276
 21
736.3513879071283
 31
0.0
  0
LINE
  5
E6D
330
18
100
AcDbEntity
  8
本体外線
100
AcDbLine
 10
1479.05077647556
 20
696.9233711415368
 30
0.0
 11
1515.05077647556
 21
696.9233711415368
 31
0.0
  0
LINE
  5
E6E
330
18
100
AcDbEntity
  8
本体外線
100
AcDbLine
 10
1492.23077647556
 20
707.9657879071285
 30
0.0
 11
1492.23077647556
 21
709.3331519612027
 31
0.0
  0
LINE
  5
E6F
330
18
100
AcDbEntity
  8
本体外線
100
AcDbLine
 10
1492.23077647556
 20
707.6532879071285
 30
0.0
 11
1492.23077647556
 21
709.4532879071285
 31
0.0
  0
LINE
  5
E70
330
18
100
AcDbEntity
  8
本体外線
100
AcDbLine
 10
1501.87077647556
 20
707.9657879071285
 30
0.0
 11
1501.87077647556
 21
709.3331519612027
 31
0.0
  0
LINE
  5
E71
330
18
100
AcDbEntity
  8
本体外線
100
AcDbLine
 10
1501.87077647556
 20
707.6532879071285
 30
0.0
 11
1501.87077647556
 21
709.4532879071285
 31
0.0
  0
LINE
  5
E72
330
18
100
AcDbEntity
  8
本体外線
100
AcDbLine
 10
1490.900776475561
 20
707.6532879071285
 30
0.0
 11
1503.20077647556
 21
707.6532879071285
 31
0.0
  0
LINE
  5
E73
330
18
100
AcDbEntity
  8
本体外線
100
AcDbLine
 10
1502.650776482854
 20
698.6532879071285
 30
0.0
 11
1491.450776468267
 21
698.6532879071285
 31
0.0
  0
LINE
  5
E74
330
18
100
AcDbEntity
  8
本体外線
100
AcDbLine
 10
1488.90077647556
 20
700.6532879071285
 30
0.0
 11
1505.20077647556
 21
700.6532879071285
 31
0.0
  0
LINE
  5
E75
330
18
100
AcDbEntity
  8
本体外線
100
AcDbLine
 10
1488.90077647556
 20
700.6532879071285
 30
0.0
 11
1488.90077647556
 21
705.6532879071284
 31
0.0
  0
LINE
  5
E76
330
18
100
AcDbEntity
  8
本体外線
100
AcDbLine
 10
1493.05077647556
 20
700.6532879071285
 30
0.0
 11
1493.05077647556
 21
707.6532879071285
 31
0.0
  0
ARC
  5
E77
330
18
100
AcDbEntity
  8
本体外線
100
AcDbCircle
 10
1479.05077647556
 20
694.9233711415367
 30
0.0
 40
2.0
100
AcDbArc
 50
90.0
 51
180.0000000000002
  0
POINT
  5
E78
330
18
100
AcDbEntity
  8
本体外線
100
AcDbPoint
 10
1489.90077647556
 20
700.6532879071285
 30
0.0
  0
POINT
  5
E79
330
18
100
AcDbEntity
  8
本体外線
100
AcDbPoint
 10
1489.90077647556
 20
700.6532879071285
 30
0.0
  0
POINT
  5
E7A
330
18
100
AcDbEntity
  8
本体外線
100
AcDbPoint
 10
1489.90077647556
 20
700.6532879071285
 30
0.0
  0
POINT
  5
E7B
330
18
100
AcDbEntity
  8
本体外線
100
AcDbPoint
 10
1489.90077647556
 20
700.6532879071285
 30
0.0
  0
POINT
  5
E7C
330
18
100
AcDbEntity
  8
本体外線
100
AcDbPoint
 10
1489.90077647556
 20
700.6532879071285
 30
0.0
  0
LINE
  5
E7D
330
18
100
AcDbEntity
  8
本体外線
100
AcDbLine
 10
1491.45077647556
 20
696.9233711415368
 30
0.0
 11
1491.45077647556
 21
698.6531671324521
 31
0.0
  0
LINE
  5
E7E
330
18
100
AcDbEntity
  8
本体外線
100
AcDbLine
 10
1490.45077647556
 20
696.9233711415368
 30
0.0
 11
1490.45077647556
 21
700.6532879071285
 31
0.0
  0
ARC
  5
E7F
330
18
100
AcDbEntity
  8
本体外線
100
AcDbCircle
 10
1490.45077647556
 20
698.6531671324521
 30
0.0
 40
1.0
100
AcDbArc
 50
0.0
 51
90.00000000000005
  0
ARC
  5
E80
330
18
100
AcDbEntity
  8
本体外線
100
AcDbCircle
 10
1490.900776475561
 20
705.6532879071284
 30
0.0
 40
2.0
100
AcDbArc
 50
89.99999999999998
 51
180.0
  0
LINE
  5
E81
330
18
100
AcDbEntity
  8
本体外線
100
AcDbLine
 10
1505.20077647556
 20
700.6532879071285
 30
0.0
 11
1505.20077647556
 21
705.6532879071284
 31
0.0
  0
LINE
  5
E82
330
18
100
AcDbEntity
  8
本体外線
100
AcDbLine
 10
1501.05077647556
 20
700.6532879071285
 30
0.0
 11
1501.05077647556
 21
707.6532879071285
 31
0.0
  0
LINE
  5
E83
330
18
100
AcDbEntity
  8
本体外線
100
AcDbLine
 10
1503.65077647556
 20
696.9233711415368
 30
0.0
 11
1503.65077647556
 21
700.6532879071285
 31
0.0
  0
LINE
  5
E84
330
18
100
AcDbEntity
  8
本体外線
100
AcDbLine
 10
1502.650776475561
 20
696.9233711415368
 30
0.0
 11
1502.650776475561
 21
698.6531671324521
 31
0.0
  0
ARC
  5
E85
330
18
100
AcDbEntity
  8
本体外線
100
AcDbCircle
 10
1503.65077647556
 20
698.6531671324521
 30
0.0
 40
1.0
100
AcDbArc
 50
89.99999999999998
 51
179.9999999999998
  0
POINT
  5
E86
330
18
100
AcDbEntity
  8
本体外線
100
AcDbPoint
 10
1501.87077647556
 20
708.7081519612027
 30
0.0
  0
ARC
  5
E87
330
18
100
AcDbEntity
  8
本体外線
100
AcDbCircle
 10
1503.20077647556
 20
705.6532879071284
 30
0.0
 40
2.0
100
AcDbArc
 50
0.0
 51
89.99999999999998
  0
LINE
  5
E88
330
18
100
AcDbEntity
  8
本体外線
100
AcDbLine
 10
1492.224511252843
 20
723.7113879071285
 30
0.0
 11
1501.877041698276
 21
723.7113879071285
 31
0.0
  0
LINE
  5
E89
330
18
100
AcDbEntity
  8
本体外線
100
AcDbLine
 10
1492.224511252843
 20
721.8513879071283
 30
0.0
 11
1501.877041698276
 21
721.8513879071283
 31
0.0
  0
LINE
  5
E8A
330
18
100
AcDbEntity
  8
本体外線
100
AcDbLine
 10
1492.228927763707
 20
709.4532879071285
 30
0.0
 11
1501.872625187413
 21
709.4532879071285
 31
0.0
  0
LINE
  5
E8B
330
18
100
AcDbEntity
  8
本体外線
100
AcDbLine
 10
1489.86077647556
 20
725.4913879071284
 30
0.0
 11
1504.24077647556
 21
725.4913879071284
 31
0.0
  0
LINE
  5
E8C
330
18
100
AcDbEntity
  8
本体外線
100
AcDbLine
 10
1489.060776475559
 20
729.0213879071284
 30
0.0
 11
1505.040776475559
 21
729.0213879071284
 31
0.0
  0
LINE
  5
E8D
330
18
100
AcDbEntity
  8
本体外線
100
AcDbLine
 10
1489.86077647556
 20
710.9913879071284
 30
0.0
 11
1504.24077647556
 21
710.9913879071284
 31
0.0
  0
LINE
  5
E8E
330
18
100
AcDbEntity
  8
本体外線
100
AcDbLine
 10
1489.06077647556
 20
714.5213879071284
 30
0.0
 11
1505.04077647556
 21
714.5213879071284
 31
0.0
  0
LINE
  5
E8F
330
18
100
AcDbEntity
  8
本体外線
100
AcDbLine
 10
1492.224511252843
 20
721.8513879071283
 30
0.0
 11
1492.224511252843
 21
723.7113879071285
 31
0.0
  0
POINT
  5
E90
330
18
100
AcDbEntity
  8
本体外線
100
AcDbPoint
 10
1492.228927763707
 20
709.4532879071285
 30
0.0
  0
POINT
  5
E91
330
18
100
AcDbEntity
  8
本体外線
100
AcDbPoint
 10
1492.23077647556
 20
709.4510604023505
 30
0.0
  0
POINT
  5
E92
330
18
100
AcDbEntity
  8
本体外線
100
AcDbPoint
 10
1492.23077647556
 20
709.4532879071285
 30
0.0
  0
POINT
  5
E93
330
18
100
AcDbEntity
  8
本体外線
100
AcDbPoint
 10
1494.05077647556
 20
709.4532879071285
 30
0.0
  0
POINT
  5
E94
330
18
100
AcDbEntity
  8
本体外線
100
AcDbPoint
 10
1494.05077647556
 20
709.4532879071285
 30
0.0
  0
POINT
  5
E95
330
18
100
AcDbEntity
  8
本体外線
100
AcDbPoint
 10
1493.85077647556
 20
709.4532879071285
 30
0.0
  0
POINT
  5
E96
330
18
100
AcDbEntity
  8
本体外線
100
AcDbPoint
 10
1493.70077647556
 20
709.4532879071285
 30
0.0
  0
LINE
  5
E97
330
18
100
AcDbEntity
  8
本体外線
100
AcDbLine
 10
1489.06077647556
 20
711.7913879071283
 30
0.0
 11
1489.06077647556
 21
714.5213879071284
 31
0.0
  0
ARC
  5
E98
330
18
100
AcDbEntity
  8
本体外線
100
AcDbCircle
 10
1489.86077647556
 20
711.7913879071283
 30
0.0
 40
0.8
100
AcDbArc
 50
180.0000000000003
 51
270.0000000000001
  0
LINE
  5
E99
330
18
100
AcDbEntity
  8
本体外線
100
AcDbLine
 10
1489.06077647556
 20
714.5213879071284
 30
0.0
 11
1492.224511252843
 21
721.8513879071283
 31
0.0
  0
ARC
  5
E9A
330
18
100
AcDbEntity
  8
本体外線
100
AcDbCircle
 10
1497.05077647556
 20
713.4532879071285
 30
0.0
 40
6.264999999999999
100
AcDbArc
 50
203.1388607758789
 51
219.7041262193298
  0
LINE
  5
E9B
330
18
100
AcDbEntity
  8
本体外線
100
AcDbLine
 10
1489.060776475559
 20
726.2913879071284
 30
0.0
 11
1489.060776475559
 21
729.0213879071284
 31
0.0
  0
ARC
  5
E9C
330
18
100
AcDbEntity
  8
本体外線
100
AcDbCircle
 10
1489.86077647556
 20
726.2913879071284
 30
0.0
 40
0.8
100
AcDbArc
 50
180.0000000000003
 51
270.0000000000001
  0
ARC
  5
E9D
330
18
100
AcDbEntity
  8
本体外線
100
AcDbCircle
 10
1497.05077647556
 20
727.7513879071284
 30
0.0
 40
6.293999999999999
100
AcDbArc
 50
201.0432234212621
 51
219.9322360634769
  0
LINE
  5
E9E
330
18
100
AcDbEntity
  8
本体外線
100
AcDbLine
 10
1501.877041698276
 20
721.8513879071283
 30
0.0
 11
1501.877041698276
 21
723.7113879071282
 31
0.0
  0
LINE
  5
E9F
330
18
100
AcDbEntity
  8
本体外線
100
AcDbLine
 10
1505.04077647556
 20
711.7913879071283
 30
0.0
 11
1505.04077647556
 21
714.5213879071284
 31
0.0
  0
ARC
  5
EA0
330
18
100
AcDbEntity
  8
本体外線
100
AcDbCircle
 10
1504.24077647556
 20
711.7913879071283
 30
0.0
 40
0.8
100
AcDbArc
 50
270.0000000000001
 51
0.0000000000004707
  0
POINT
  5
EA1
330
18
100
AcDbEntity
  8
本体外線
100
AcDbPoint
 10
1501.9055293014
 20
709.3532879071285
 30
0.0
  0
POINT
  5
EA2
330
18
100
AcDbEntity
  8
本体外線
100
AcDbPoint
 10
1501.872625187413
 20
709.4532879071285
 30
0.0
  0
POINT
  5
EA3
330
18
100
AcDbEntity
  8
本体外線
100
AcDbPoint
 10
1500.122205046989
 20
709.4532879071285
 30
0.0
  0
POINT
  5
EA4
330
18
100
AcDbEntity
  8
本体外線
100
AcDbPoint
 10
1500.05077647556
 20
709.4532879071285
 30
0.0
  0
POINT
  5
EA5
330
18
100
AcDbEntity
  8
本体外線
100
AcDbPoint
 10
1500.05077647556
 20
709.4532879071285
 30
0.0
  0
POINT
  5
EA6
330
18
100
AcDbEntity
  8
本体外線
100
AcDbPoint
 10
1500.25077647556
 20
709.4532879071285
 30
0.0
  0
POINT
  5
EA7
330
18
100
AcDbEntity
  8
本体外線
100
AcDbPoint
 10
1500.40077647556
 20
709.4532879071285
 30
0.0
  0
ARC
  5
EA8
330
18
100
AcDbEntity
  8
本体外線
100
AcDbCircle
 10
1497.05077647556
 20
713.4532879071285
 30
0.0
 40
6.264999999999999
100
AcDbArc
 50
320.2958737806704
 51
336.8611392241211
  0
LINE
  5
EA9
330
18
100
AcDbEntity
  8
本体外線
100
AcDbLine
 10
1505.04077647556
 20
714.5213879071284
 30
0.0
 11
1501.877041698276
 21
721.8513879071283
 31
0.0
  0
LINE
  5
EAA
330
18
100
AcDbEntity
  8
本体外線
100
AcDbLine
 10
1505.040776475559
 20
726.2913879071284
 30
0.0
 11
1505.040776475559
 21
729.0213879071284
 31
0.0
  0
ARC
  5
EAB
330
18
100
AcDbEntity
  8
本体外線
100
AcDbCircle
 10
1504.24077647556
 20
726.2913879071284
 30
0.0
 40
0.8
100
AcDbArc
 50
270.0000000000001
 51
0.0000000000004707
  0
ARC
  5
EAC
330
18
100
AcDbEntity
  8
本体外線
100
AcDbCircle
 10
1497.05077647556
 20
727.7513879071284
 30
0.0
 40
6.293999999999999
100
AcDbArc
 50
320.0677639365229
 51
338.9567765787378
  0
LINE
  5
EB1
330
18
100
AcDbEntity
  8
本体外線
100
AcDbLine
 10
1532.15077647556
 20
685.3733711415368
 30
0.0
 11
1528.150776475559
 21
686.4233711415367
 31
0.0
  0
ARC
  5
EB2
330
18
100
AcDbEntity
  8
本体外線
100
AcDbCircle
 10
1515.05077647556
 20
694.9233711415367
 30
0.0
 40
2.0
100
AcDbArc
 50
0.0000000000002036
 51
90.0
  0
LINE
  5
EB3
330
18
100
AcDbEntity
  8
本体外線
100
AcDbLine
 10
1517.968293570921
 20
684.8101224874849
 30
0.0
 11
1521.233259380198
 21
684.8101224874849
 31
0.0
  0
LINE
  5
EB4
330
18
100
AcDbEntity
  8
本体外線
100
AcDbLine
 10
1517.736948679635
 20
687.6968738334331
 30
0.0
 11
1521.464604271485
 21
687.6968738334331
 31
0.0
  0
LINE
  5
EB5
330
18
100
AcDbEntity
  8
本体外線
100
AcDbLine
 10
1517.05077647556
 20
686.7873711415368
 30
0.0
 11
1517.736948679635
 21
687.6968738334331
 31
0.0
  0
ARC
  5
EB6
330
18
100
AcDbEntity
  8
本体外線
100
AcDbCircle
 10
1518.64484538632
 20
686.2534981604589
 30
0.0
 40
1.594068910760485
100
AcDbArc
 50
115.1138412446869
 51
244.8861587553131
  0
LINE
  5
EB7
330
18
100
AcDbEntity
  8
本体外線
100
AcDbLine
 10
1522.15077647556
 20
686.7873711415368
 30
0.0
 11
1521.464604271485
 21
687.6968738334331
 31
0.0
  0
ARC
  5
EB8
330
18
100
AcDbEntity
  8
本体外線
100
AcDbCircle
 10
1520.556707564799
 20
686.2534981604589
 30
0.0
 40
1.594068910760485
100
AcDbArc
 50
295.1138412446869
 51
64.88615875531309
  0
LINE
  5
EB9
330
18
100
AcDbEntity
  8
本体外線
100
AcDbLine
 10
1523.15077647556
 20
686.4233711415367
 30
0.0
 11
1522.15077647556
 21
686.4233711415367
 31
0.0
  0
LINE
  5
EBA
330
18
100
AcDbEntity
  8
本体外線
100
AcDbLine
 10
1527.15077647556
 20
685.3733711415368
 30
0.0
 11
1523.15077647556
 21
686.4233711415367
 31
0.0
  0
LINE
  5
EBB
330
18
100
AcDbEntity
  8
本体外線
100
AcDbLine
 10
1528.150776475559
 20
686.4233711415367
 30
0.0
 11
1527.15077647556
 21
686.4233711415367
 31
0.0
  0
LINE
  5
EBD
330
18
100
AcDbEntity
  8
本体外線
100
AcDbLine
 10
1542.150776475559
 20
685.3733711415368
 30
0.0
 11
1538.15077647556
 21
686.4233711415367
 31
0.0
  0
LINE
  5
EBE
330
18
100
AcDbEntity
  8
本体外線
100
AcDbLine
 10
1538.15077647556
 20
686.4233711415367
 30
0.0
 11
1537.15077647556
 21
686.4233711415367
 31
0.0
  0
LINE
  5
EBF
330
18
100
AcDbEntity
  8
本体外線
100
AcDbLine
 10
1537.15077647556
 20
685.3733711415368
 30
0.0
 11
1533.15077647556
 21
686.4233711415367
 31
0.0
  0
LINE
  5
EC0
330
18
100
AcDbEntity
  8
本体外線
100
AcDbLine
 10
1533.15077647556
 20
686.4233711415367
 30
0.0
 11
1532.15077647556
 21
686.4233711415367
 31
0.0
  0
LINE
  5
EC1
330
18
100
AcDbEntity
  8
本体外線
100
AcDbLine
 10
1489.060776475559
 20
758.0213879071284
 30
0.0
 11
1492.224511252843
 21
765.3513879071283
 31
0.0
  0
LINE
  5
EC2
330
18
100
AcDbEntity
  8
本体外線
100
AcDbLine
 10
1505.040776475559
 20
758.0213879071284
 30
0.0
 11
1501.877041698276
 21
765.3513879071283
 31
0.0
  0
LINE
  5
EC3
330
18
100
AcDbEntity
  8
本体外線
100
AcDbLine
 10
1492.224511252843
 20
738.2113879071284
 30
0.0
 11
1501.877041698276
 21
738.2113879071284
 31
0.0
  0
LINE
  5
EC4
330
18
100
AcDbEntity
  8
本体外線
100
AcDbLine
 10
1492.224511252843
 20
750.8513879071283
 30
0.0
 11
1501.877041698276
 21
750.8513879071283
 31
0.0
  0
LINE
  5
EC5
330
18
100
AcDbEntity
  8
本体外線
100
AcDbLine
 10
1492.224511252843
 20
752.7113879071285
 30
0.0
 11
1501.877041698276
 21
752.7113879071285
 31
0.0
  0
LINE
  5
EC6
330
18
100
AcDbEntity
  8
本体外線
100
AcDbLine
 10
1492.224511252843
 20
736.3513879071283
 30
0.0
 11
1501.877041698276
 21
736.3513879071283
 31
0.0
  0
LINE
  5
EC7
330
18
100
AcDbEntity
  8
本体外線
100
AcDbLine
 10
1489.86077647556
 20
739.9913879071284
 30
0.0
 11
1504.240776475559
 21
739.9913879071284
 31
0.0
  0
LINE
  5
EC8
330
18
100
AcDbEntity
  8
本体外線
100
AcDbLine
 10
1489.060776475559
 20
743.5213879071284
 30
0.0
 11
1505.040776475559
 21
743.5213879071284
 31
0.0
  0
LINE
  5
EC9
330
18
100
AcDbEntity
  8
本体外線
100
AcDbLine
 10
1489.860776475559
 20
754.4913879071284
 30
0.0
 11
1504.240776475559
 21
754.4913879071284
 31
0.0
  0
LINE
  5
ECA
330
18
100
AcDbEntity
  8
本体外線
100
AcDbLine
 10
1489.060776475559
 20
758.0213879071284
 30
0.0
 11
1505.040776475559
 21
758.0213879071284
 31
0.0
  0
ARC
  5
ECB
330
18
100
AcDbEntity
  8
本体外線
100
AcDbCircle
 10
1489.86077647556
 20
740.7913879071283
 30
0.0
 40
0.8
100
AcDbArc
 50
180.0000000000003
 51
270.0000000000001
  0
ARC
  5
ECC
330
18
100
AcDbEntity
  8
本体外線
100
AcDbCircle
 10
1497.05077647556
 20
742.2513879071284
 30
0.0
 40
6.293999999999999
100
AcDbArc
 50
201.0432234212628
 51
219.9322360634769
  0
LINE
  5
ECD
330
18
100
AcDbEntity
  8
本体外線
100
AcDbLine
 10
1492.224511252843
 20
736.3513879071283
 30
0.0
 11
1492.224511252843
 21
738.2113879071284
 31
0.0
  0
LINE
  5
ECE
330
18
100
AcDbEntity
  8
本体外線
100
AcDbLine
 10
1489.060776475559
 20
755.2913879071284
 30
0.0
 11
1489.060776475559
 21
758.0213879071284
 31
0.0
  0
ARC
  5
ECF
330
18
100
AcDbEntity
  8
本体外線
100
AcDbCircle
 10
1489.86077647556
 20
755.2913879071284
 30
0.0
 40
0.8
100
AcDbArc
 50
180.0000000000003
 51
270.0000000000001
  0
LINE
  5
ED0
330
18
100
AcDbEntity
  8
本体外線
100
AcDbLine
 10
1489.060776475559
 20
743.5213879071284
 30
0.0
 11
1492.224511252843
 21
750.8513879071283
 31
0.0
  0
LINE
  5
ED1
330
18
100
AcDbEntity
  8
本体外線
100
AcDbLine
 10
1489.060776475559
 20
740.7913879071283
 30
0.0
 11
1489.060776475559
 21
743.5213879071284
 31
0.0
  0
LINE
  5
ED2
330
18
100
AcDbEntity
  8
本体外線
100
AcDbLine
 10
1492.224511252843
 20
750.8513879071283
 30
0.0
 11
1492.224511252843
 21
752.7113879071285
 31
0.0
  0
ARC
  5
ED3
330
18
100
AcDbEntity
  8
本体外線
100
AcDbCircle
 10
1497.050776475559
 20
756.7513879071285
 30
0.0
 40
6.293999999999999
100
AcDbArc
 50
201.0432234212621
 51
219.9322360634769
  0
ARC
  5
ED4
330
18
100
AcDbEntity
  8
本体外線
100
AcDbCircle
 10
1504.24077647556
 20
740.7913879071283
 30
0.0
 40
0.8
100
AcDbArc
 50
270.0000000000001
 51
0.0000000000004707
  0
ARC
  5
ED5
330
18
100
AcDbEntity
  8
本体外線
100
AcDbCircle
 10
1497.05077647556
 20
742.2513879071284
 30
0.0
 40
6.293999999999999
100
AcDbArc
 50
320.0677639365229
 51
338.9567765787373
  0
LINE
  5
ED6
330
18
100
AcDbEntity
  8
本体外線
100
AcDbLine
 10
1501.877041698276
 20
736.3513879071283
 30
0.0
 11
1501.877041698276
 21
738.2113879071282
 31
0.0
  0
LINE
  5
ED7
330
18
100
AcDbEntity
  8
本体外線
100
AcDbLine
 10
1505.040776475559
 20
755.2913879071284
 30
0.0
 11
1505.040776475559
 21
758.0213879071284
 31
0.0
  0
ARC
  5
ED8
330
18
100
AcDbEntity
  8
本体外線
100
AcDbCircle
 10
1504.240776475559
 20
755.2913879071284
 30
0.0
 40
0.8
100
AcDbArc
 50
270.0000000000001
 51
0.0000000000004707
  0
LINE
  5
ED9
330
18
100
AcDbEntity
  8
本体外線
100
AcDbLine
 10
1505.040776475559
 20
740.7913879071283
 30
0.0
 11
1505.040776475559
 21
743.5213879071284
 31
0.0
  0
LINE
  5
EDA
330
18
100
AcDbEntity
  8
本体外線
100
AcDbLine
 10
1501.877041698276
 20
750.8513879071283
 30
0.0
 11
1501.877041698276
 21
752.7113879071282
 31
0.0
  0
ARC
  5
EDB
330
18
100
AcDbEntity
  8
本体外線
100
AcDbCircle
 10
1497.050776475559
 20
756.7513879071285
 30
0.0
 40
6.293999999999999
100
AcDbArc
 50
320.0677639365229
 51
338.9567765787378
  0
LINE
  5
EDC
330
18
100
AcDbEntity
  8
本体外線
100
AcDbLine
 10
1505.040776475559
 20
743.5213879071284
 30
0.0
 11
1501.877041698276
 21
750.8513879071283
 31
0.0
  0
LINE
  5
EDD
330
18
100
AcDbEntity
  8
本体外線
100
AcDbLine
 10
1492.224511252843
 20
779.8513879071284
 30
0.0
 11
1501.877041698275
 21
779.8513879071284
 31
0.0
  0
LINE
  5
EDE
330
18
100
AcDbEntity
  8
本体外線
100
AcDbLine
 10
1492.224511252843
 20
781.7113879071285
 30
0.0
 11
1501.877041698275
 21
781.7113879071285
 31
0.0
  0
LINE
  5
EDF
330
18
100
AcDbEntity
  8
本体外線
100
AcDbLine
 10
1492.224511252843
 20
765.3513879071283
 30
0.0
 11
1501.877041698276
 21
765.3513879071283
 31
0.0
  0
LINE
  5
EE0
330
18
100
AcDbEntity
  8
本体外線
100
AcDbLine
 10
1492.224511252843
 20
767.2113879071284
 30
0.0
 11
1501.877041698276
 21
767.2113879071284
 31
0.0
  0
LINE
  5
EE1
330
18
100
AcDbEntity
  8
本体外線
100
AcDbLine
 10
1489.060776475559
 20
772.5213879071284
 30
0.0
 11
1505.040776475559
 21
772.5213879071284
 31
0.0
  0
LINE
  5
EE2
330
18
100
AcDbEntity
  8
本体外線
100
AcDbLine
 10
1489.860776475559
 20
768.9913879071284
 30
0.0
 11
1504.240776475559
 21
768.9913879071284
 31
0.0
  0
LINE
  5
EE3
330
18
100
AcDbEntity
  8
本体外線
100
AcDbLine
 10
1489.860776475559
 20
783.4913879071284
 30
0.0
 11
1504.240776475559
 21
783.4913879071284
 31
0.0
  0
LINE
  5
EE4
330
18
100
AcDbEntity
  8
本体外線
100
AcDbLine
 10
1489.060776475559
 20
787.0213879071284
 30
0.0
 11
1505.040776475559
 21
787.0213879071284
 31
0.0
  0
LINE
  5
EE5
330
18
100
AcDbEntity
  8
本体外線
100
AcDbLine
 10
1489.060776475559
 20
772.5213879071284
 30
0.0
 11
1492.224511252843
 21
779.8513879071284
 31
0.0
  0
ARC
  5
EE6
330
18
100
AcDbEntity
  8
本体外線
100
AcDbCircle
 10
1489.860776475559
 20
769.7913879071283
 30
0.0
 40
0.8
100
AcDbArc
 50
180.0000000000003
 51
270.0000000000001
  0
LINE
  5
EE7
330
18
100
AcDbEntity
  8
本体外線
100
AcDbLine
 10
1489.060776475559
 20
769.7913879071283
 30
0.0
 11
1489.060776475559
 21
772.5213879071284
 31
0.0
  0
LINE
  5
EE8
330
18
100
AcDbEntity
  8
本体外線
100
AcDbLine
 10
1492.224511252843
 20
765.3513879071283
 30
0.0
 11
1492.224511252843
 21
767.2113879071284
 31
0.0
  0
ARC
  5
EE9
330
18
100
AcDbEntity
  8
本体外線
100
AcDbCircle
 10
1497.050776475559
 20
771.2513879071284
 30
0.0
 40
6.293999999999999
100
AcDbArc
 50
201.0432234212621
 51
219.9322360634769
  0
LINE
  5
EEA
330
18
100
AcDbEntity
  8
本体外線
100
AcDbLine
 10
1489.060776475559
 20
784.2913879071284
 30
0.0
 11
1489.060776475559
 21
787.0213879071284
 31
0.0
  0
ARC
  5
EEB
330
18
100
AcDbEntity
  8
本体外線
100
AcDbCircle
 10
1497.050776475559
 20
785.7513879071285
 30
0.0
 40
6.293999999999999
100
AcDbArc
 50
201.0432234212628
 51
219.9322360634769
  0
LINE
  5
EEC
330
18
100
AcDbEntity
  8
本体外線
100
AcDbLine
 10
1492.224511252843
 20
779.8513879071284
 30
0.0
 11
1492.224511252843
 21
781.7113879071285
 31
0.0
  0
ARC
  5
EED
330
18
100
AcDbEntity
  8
本体外線
100
AcDbCircle
 10
1489.860776475559
 20
784.2913879071284
 30
0.0
 40
0.8
100
AcDbArc
 50
180.0000000000003
 51
270.0000000000001
  0
LINE
  5
EEE
330
18
100
AcDbEntity
  8
本体外線
100
AcDbLine
 10
1505.040776475559
 20
772.5213879071284
 30
0.0
 11
1501.877041698275
 21
779.8513879071284
 31
0.0
  0
ARC
  5
EEF
330
18
100
AcDbEntity
  8
本体外線
100
AcDbCircle
 10
1504.240776475559
 20
769.7913879071283
 30
0.0
 40
0.8
100
AcDbArc
 50
270.0000000000001
 51
0.0000000000004707
  0
LINE
  5
EF0
330
18
100
AcDbEntity
  8
本体外線
100
AcDbLine
 10
1505.040776475559
 20
769.7913879071283
 30
0.0
 11
1505.040776475559
 21
772.5213879071284
 31
0.0
  0
LINE
  5
EF1
330
18
100
AcDbEntity
  8
本体外線
100
AcDbLine
 10
1501.877041698276
 20
765.3513879071283
 30
0.0
 11
1501.877041698276
 21
767.2113879071282
 31
0.0
  0
ARC
  5
EF2
330
18
100
AcDbEntity
  8
本体外線
100
AcDbCircle
 10
1497.050776475559
 20
771.2513879071284
 30
0.0
 40
6.293999999999999
100
AcDbArc
 50
320.0677639365229
 51
338.9567765787378
  0
LINE
  5
EF3
330
18
100
AcDbEntity
  8
本体外線
100
AcDbLine
 10
1505.040776475559
 20
784.2913879071284
 30
0.0
 11
1505.040776475559
 21
787.0213879071284
 31
0.0
  0
ARC
  5
EF4
330
18
100
AcDbEntity
  8
本体外線
100
AcDbCircle
 10
1504.240776475559
 20
784.2913879071284
 30
0.0
 40
0.8
100
AcDbArc
 50
270.0000000000001
 51
0.0000000000004707
  0
ARC
  5
EF5
330
18
100
AcDbEntity
  8
本体外線
100
AcDbCircle
 10
1497.050776475559
 20
785.7513879071285
 30
0.0
 40
6.293999999999999
100
AcDbArc
 50
320.0677639365229
 51
338.9567765787373
  0
LINE
  5
EF6
330
18
100
AcDbEntity
  8
本体外線
100
AcDbLine
 10
1501.877041698275
 20
779.8513879071284
 30
0.0
 11
1501.877041698275
 21
781.7113879071282
 31
0.0
  0
LINE
  5
EFE
330
18
100
AcDbEntity
  8
本体外線
100
AcDbLine
 10
1488.950776475558
 20
844.4213879071284
 30
0.0
 11
1488.950776475558
 21
841.8213879071284
 31
0.0
  0
LINE
  5
EFF
330
18
100
AcDbEntity
  8
本体外線
100
AcDbLine
 10
1505.150776475559
 20
844.4213879071284
 30
0.0
 11
1505.150776475559
 21
841.8213879071284
 31
0.0
  0
LINE
  5
F00
330
18
100
AcDbEntity
  8
本体外線
100
AcDbLine
 10
1489.060776475559
 20
816.0213879071283
 30
0.0
 11
1492.224511252842
 21
823.3513879071283
 31
0.0
  0
LINE
  5
F01
330
18
100
AcDbEntity
  8
本体外線
100
AcDbLine
 10
1505.040776475558
 20
816.0213879071283
 30
0.0
 11
1501.877041698275
 21
823.3513879071283
 31
0.0
  0
LINE
  5
F02
330
18
100
AcDbEntity
  8
本体外線
100
AcDbLine
 10
1489.060776475559
 20
816.0213879071283
 30
0.0
 11
1505.040776475559
 21
816.0213879071283
 31
0.0
  0
LINE
  5
F03
330
18
100
AcDbEntity
  8
本体外線
100
AcDbLine
 10
1489.060776475559
 20
801.5213879071284
 30
0.0
 11
1495.563092233968
 21
801.5213879071286
 31
0.0
  0
LINE
  5
F04
330
18
100
AcDbEntity
  8
本体外線
100
AcDbLine
 10
1492.224511252842
 20
808.8513879071284
 30
0.0
 11
1501.877041698275
 21
808.8513879071284
 31
0.0
  0
LINE
  5
F05
330
18
100
AcDbEntity
  8
本体外線
100
AcDbLine
 10
1492.224511252842
 20
810.7113879071285
 30
0.0
 11
1501.877041698275
 21
810.7113879071285
 31
0.0
  0
LINE
  5
F06
330
18
100
AcDbEntity
  8
本体外線
100
AcDbLine
 10
1492.224511252843
 20
794.3513879071283
 30
0.0
 11
1501.877041698275
 21
794.3513879071283
 31
0.0
  0
LINE
  5
F07
330
18
100
AcDbEntity
  8
本体外線
100
AcDbLine
 10
1493.334959949628
 20
796.2113879071284
 30
0.0
 11
1501.877041698275
 21
796.2113879071284
 31
0.0
  0
LINE
  5
F08
330
18
100
AcDbEntity
  8
剖面線
100
AcDbLine
 10
1510.448998686238
 20
812.2730406047047
 30
0.0
 11
1484.504226749908
 21
793.5338944148729
 31
0.0
  0
LINE
  5
F09
330
18
100
AcDbEntity
  8
剖面線
100
AcDbLine
 10
1512.205547681212
 20
809.8410587733056
 30
0.0
 11
1486.260775744882
 21
791.1019125834741
 31
0.0
  0
LINE
  5
F0A
330
18
100
AcDbEntity
  8
本体外線
100
AcDbLine
 10
1489.860776475559
 20
812.4913879071284
 30
0.0
 11
1504.240776475559
 21
812.4913879071284
 31
0.0
  0
LINE
  5
F0B
330
18
100
AcDbEntity
  8
本体外線
100
AcDbLine
 10
1492.224511252843
 20
794.3513879071283
 30
0.0
 11
1492.224511252843
 21
795.4093434522214
 31
0.0
  0
LINE
  5
F0C
330
18
100
AcDbEntity
  8
本体外線
100
AcDbLine
 10
1489.060776475559
 20
813.2913879071283
 30
0.0
 11
1489.060776475559
 21
816.0213879071283
 31
0.0
  0
ARC
  5
F0D
330
18
100
AcDbEntity
  8
本体外線
100
AcDbCircle
 10
1489.860776475559
 20
813.2913879071283
 30
0.0
 40
0.8
100
AcDbArc
 50
180.0000000000003
 51
270.0000000000001
  0
ARC
  5
F0E
330
18
100
AcDbEntity
  8
本体外線
100
AcDbCircle
 10
1497.050776475559
 20
814.7513879071285
 30
0.0
 40
6.293999999999999
100
AcDbArc
 50
201.0432234212621
 51
219.9322360634769
  0
LINE
  5
F0F
330
18
100
AcDbEntity
  8
本体外線
100
AcDbLine
 10
1492.224511252842
 20
808.8513879071284
 30
0.0
 11
1492.224511252842
 21
810.7113879071285
 31
0.0
  0
LINE
  5
F10
330
18
100
AcDbEntity
  8
本体外線
100
AcDbLine
 10
1489.060776475559
 20
801.5213879071284
 30
0.0
 11
1492.224511252842
 21
808.8513879071284
 31
0.0
  0
ARC
  5
F11
330
18
100
AcDbEntity
  8
本体外線
100
AcDbCircle
 10
1489.860776475559
 20
798.7913879071284
 30
0.0
 40
0.8
100
AcDbArc
 50
180.0000000000003
 51
270.0000000000001
  0
LINE
  5
F12
330
18
100
AcDbEntity
  8
本体外線
100
AcDbLine
 10
1489.860776475559
 20
797.9913879071284
 30
0.0
 11
1490.675727355789
 21
797.9913879071284
 31
0.0
  0
LINE
  5
F13
330
18
100
AcDbEntity
  8
本体外線
100
AcDbLine
 10
1489.060776475559
 20
798.7913879071284
 30
0.0
 11
1489.060776475559
 21
801.5213879071284
 31
0.0
  0
ARC
  5
F14
330
18
100
AcDbEntity
  8
本体外線
100
AcDbCircle
 10
1497.050776475559
 20
800.2513879071283
 30
0.0
 40
6.293999999999999
100
AcDbArc
 50
320.0677639365229
 51
338.9567765787378
  0
LINE
  5
F15
330
18
100
AcDbEntity
  8
本体外線
100
AcDbLine
 10
1501.877041698275
 20
794.3513879071283
 30
0.0
 11
1501.877041698275
 21
796.2113879071282
 31
0.0
  0
LINE
  5
F16
330
18
100
AcDbEntity
  8
本体外線
100
AcDbLine
 10
1505.040776475558
 20
813.2913879071283
 30
0.0
 11
1505.040776475558
 21
816.0213879071283
 31
0.0
  0
ARC
  5
F17
330
18
100
AcDbEntity
  8
本体外線
100
AcDbCircle
 10
1504.240776475559
 20
813.2913879071283
 30
0.0
 40
0.8
100
AcDbArc
 50
270.0000000000001
 51
0.0000000000004707
  0
LINE
  5
F18
330
18
100
AcDbEntity
  8
本体外線
100
AcDbLine
 10
1505.040776475559
 20
801.5213879071284
 30
0.0
 11
1504.006025124717
 21
803.9187846346065
 31
0.0
  0
ARC
  5
F19
330
18
100
AcDbEntity
  8
本体外線
100
AcDbCircle
 10
1504.240776475559
 20
798.7913879071284
 30
0.0
 40
0.8
100
AcDbArc
 50
270.0000000000001
 51
0.0000000000004707
  0
LINE
  5
F1A
330
18
100
AcDbEntity
  8
本体外線
100
AcDbLine
 10
1505.040776475559
 20
798.7913879071284
 30
0.0
 11
1505.040776475559
 21
801.5213879071284
 31
0.0
  0
LINE
  5
F1B
330
18
100
AcDbEntity
  8
本体外線
100
AcDbLine
 10
1502.788354912
 20
806.7399827714748
 30
0.0
 11
1501.877041698275
 21
808.8513879071284
 31
0.0
  0
ARC
  5
F1C
330
18
100
AcDbEntity
  8
本体外線
100
AcDbCircle
 10
1497.050776475559
 20
814.7513879071285
 30
0.0
 40
6.293999999999999
100
AcDbArc
 50
320.0677639365229
 51
338.9567765787378
  0
LINE
  5
F1D
330
18
100
AcDbEntity
  8
本体外線
100
AcDbLine
 10
1501.877041698275
 20
808.8513879071284
 30
0.0
 11
1501.877041698275
 21
810.7113879071283
 31
0.0
  0
LINE
  5
F1E
330
18
100
AcDbEntity
  8
本体外線
100
AcDbLine
 10
1495.799410228143
 20
797.9913879071284
 30
0.0
 11
1504.240776475559
 21
797.9913879071284
 31
0.0
  0
LINE
  5
F1F
330
18
100
AcDbEntity
  8
本体外線
100
AcDbLine
 10
1500.686775106322
 20
801.5213879071284
 30
0.0
 11
1505.040776475559
 21
801.5213879071284
 31
0.0
  0
LINE
  5
F20
330
18
100
AcDbEntity
  8
本体外線
100
AcDbLine
 10
1492.224511252842
 20
823.3513879071283
 30
0.0
 11
1501.877041698275
 21
823.3513879071283
 31
0.0
  0
LINE
  5
F21
330
18
100
AcDbEntity
  8
本体外線
100
AcDbLine
 10
1492.224511252842
 20
825.2113879071284
 30
0.0
 11
1501.877041698275
 21
825.2113879071284
 31
0.0
  0
LINE
  5
F22
330
18
100
AcDbEntity
  8
本体外線
100
AcDbLine
 10
1489.860776475559
 20
826.9913879071284
 30
0.0
 11
1504.240776475559
 21
826.9913879071284
 31
0.0
  0
LINE
  5
F23
330
18
100
AcDbEntity
  8
本体外線
100
AcDbLine
 10
1489.060776475558
 20
830.5213879071285
 30
0.0
 11
1505.040776475558
 21
830.5213879071285
 31
0.0
  0
LINE
  5
F24
330
18
100
AcDbEntity
  8
本体外線
100
AcDbLine
 10
1492.224511252842
 20
837.8513879071283
 30
0.0
 11
1501.877041698274
 21
837.8513879071283
 31
0.0
  0
LINE
  5
F25
330
18
100
AcDbEntity
  8
本体外線
100
AcDbLine
 10
1492.224511252842
 20
839.7113879071284
 30
0.0
 11
1501.877041698274
 21
839.7113879071284
 31
0.0
  0
LINE
  5
F26
330
18
100
AcDbEntity
  8
本体外線
100
AcDbLine
 10
1489.950776475558
 20
840.8213879071283
 30
0.0
 11
1504.150776475559
 21
840.8213879071283
 31
0.0
  0
LINE
  5
F27
330
18
100
AcDbEntity
  8
本体外線
100
AcDbLine
 10
1489.060776475558
 20
830.5213879071285
 30
0.0
 11
1492.224511252842
 21
837.8513879071283
 31
0.0
  0
ARC
  5
F28
330
18
100
AcDbEntity
  8
本体外線
100
AcDbCircle
 10
1489.860776475559
 20
827.7913879071284
 30
0.0
 40
0.8
100
AcDbArc
 50
180.0000000000003
 51
270.0000000000001
  0
ARC
  5
F29
330
18
100
AcDbEntity
  8
本体外線
100
AcDbCircle
 10
1497.050776475559
 20
829.2513879071284
 30
0.0
 40
6.293999999999999
100
AcDbArc
 50
201.0432234212623
 51
219.9322360634769
  0
LINE
  5
F2A
330
18
100
AcDbEntity
  8
本体外線
100
AcDbLine
 10
1492.224511252842
 20
823.3513879071283
 30
0.0
 11
1492.224511252842
 21
825.2113879071284
 31
0.0
  0
LINE
  5
F2B
330
18
100
AcDbEntity
  8
本体外線
100
AcDbLine
 10
1489.060776475558
 20
827.7913879071284
 30
0.0
 11
1489.060776475558
 21
830.5213879071285
 31
0.0
  0
ARC
  5
F2C
330
18
100
AcDbEntity
  8
本体外線
100
AcDbCircle
 10
1497.050776475559
 20
843.7513879071284
 30
0.0
 40
6.293999999999999
100
AcDbArc
 50
207.7440568381522
 51
219.9322360634769
  0
LINE
  5
F2D
330
18
100
AcDbEntity
  8
本体外線
100
AcDbLine
 10
1492.224511252842
 20
837.8513879071283
 30
0.0
 11
1492.224511252842
 21
839.7113879071284
 31
0.0
  0
LINE
  5
F2E
330
18
100
AcDbEntity
  8
本体外線
100
AcDbLine
 10
1488.950776475559
 20
841.6213879071284
 30
0.0
 11
1488.970980578445
 21
841.6213879071284
 31
0.0
  0
ARC
  5
F2F
330
18
100
AcDbEntity
  8
本体外線
100
AcDbCircle
 10
1489.950776475559
 20
841.8213879071284
 30
0.0
 40
1.0
100
AcDbArc
 50
180.0
 51
270.0000000000002
  0
LINE
  5
F30
330
18
100
AcDbEntity
  8
本体外線
100
AcDbLine
 10
1505.040776475558
 20
830.5213879071285
 30
0.0
 11
1501.877041698274
 21
837.8513879071283
 31
0.0
  0
ARC
  5
F31
330
18
100
AcDbEntity
  8
本体外線
100
AcDbCircle
 10
1504.240776475559
 20
827.7913879071284
 30
0.0
 40
0.8
100
AcDbArc
 50
270.0000000000001
 51
0.0000000000004707
  0
LINE
  5
F32
330
18
100
AcDbEntity
  8
本体外線
100
AcDbLine
 10
1505.040776475558
 20
827.7913879071284
 30
0.0
 11
1505.040776475558
 21
830.5213879071285
 31
0.0
  0
ARC
  5
F33
330
18
100
AcDbEntity
  8
本体外線
100
AcDbCircle
 10
1497.050776475559
 20
829.2513879071284
 30
0.0
 40
6.293999999999999
100
AcDbArc
 50
320.0677639365229
 51
338.9567765787378
  0
LINE
  5
F34
330
18
100
AcDbEntity
  8
本体外線
100
AcDbLine
 10
1501.877041698275
 20
823.3513879071283
 30
0.0
 11
1501.877041698275
 21
825.2113879071282
 31
0.0
  0
ARC
  5
F35
330
18
100
AcDbEntity
  8
本体外線
100
AcDbCircle
 10
1504.150776475559
 20
841.8213879071284
 30
0.0
 40
1.0
100
AcDbArc
 50
270.0
 51
359.9999999999996
  0
ARC
  5
F36
330
18
100
AcDbEntity
  8
本体外線
100
AcDbCircle
 10
1497.050776475559
 20
843.7513879071284
 30
0.0
 40
6.293999999999999
100
AcDbArc
 50
320.0677639365229
 51
332.2559431618487
  0
LINE
  5
F37
330
18
100
AcDbEntity
  8
本体外線
100
AcDbLine
 10
1501.877041698274
 20
837.8513879071283
 30
0.0
 11
1501.877041698274
 21
839.7113879071282
 31
0.0
  0
LINE
  5
F38
330
18
100
AcDbEntity
  8
本体外線
100
AcDbLine
 10
1483.500776475558
 20
870.1813879071282
 30
0.0
 11
1482.835800017753
 21
869.5164114493232
 31
0.0
  0
LINE
  5
F39
330
18
100
AcDbEntity
  8
本体外線
100
AcDbLine
 10
1510.600776475558
 20
870.1813879071282
 30
0.0
 11
1511.265752933363
 21
869.5164114493232
 31
0.0
  0
LINE
  5
F3A
330
18
100
AcDbEntity
  8
本体外線
100
AcDbLine
 10
1491.750776475559
 20
852.1813879071284
 30
0.0
 11
1502.350776475559
 21
852.1813879071283
 31
0.0
  0
ARC
  5
F3B
330
18
100
AcDbEntity
  8
本体外線
100
AcDbCircle
 10
1497.076008067194
 20
861.7975116767839
 30
0.0
 40
8.936722927627803
100
AcDbArc
 50
218.8444562423264
 51
321.1555437576738
  0
LINE
  5
F3C
330
18
100
AcDbEntity
  8
本体外線
100
AcDbLine
 10
1488.950776475559
 20
844.4213879071284
 30
0.0
 11
1505.150776475559
 21
844.4213879071284
 31
0.0
  0
LINE
  5
F3D
330
18
100
AcDbEntity
  8
本体外線
100
AcDbLine
 10
1491.750776475559
 20
852.1813879071284
 30
0.0
 11
1482.835800017753
 21
869.5164114493232
 31
0.0
  0
LINE
  5
F3E
330
18
100
AcDbEntity
  8
本体外線
100
AcDbLine
 10
1491.750776475559
 20
852.1813879071284
 30
0.0
 11
1488.950776475558
 21
844.4213879071284
 31
0.0
  0
LINE
  5
F3F
330
18
100
AcDbEntity
  8
本体外線
100
AcDbLine
 10
1490.115627620277
 20
856.1923247290213
 30
0.0
 11
1482.835800017753
 21
869.5164114493232
 31
0.0
  0
LINE
  5
F40
330
18
100
AcDbEntity
  8
本体外線
100
AcDbLine
 10
1502.350776475559
 20
852.1813879071283
 30
0.0
 11
1511.265752933363
 21
869.5164114493232
 31
0.0
  0
LINE
  5
F41
330
18
100
AcDbEntity
  8
本体外線
100
AcDbLine
 10
1502.350776475559
 20
852.1813879071284
 30
0.0
 11
1505.150776475559
 21
844.4213879071284
 31
0.0
  0
LINE
  5
F42
330
18
100
AcDbEntity
  8
本体外線
100
AcDbLine
 10
1504.03638851411
 20
856.1923247290213
 30
0.0
 11
1511.265752933363
 21
869.5164114493232
 31
0.0
  0
LINE
  5
F43
330
18
100
AcDbEntity
  8
本体外線
100
AcDbLine
 10
1483.500776475558
 20
870.1813879071282
 30
0.0
 11
1510.600776475558
 21
870.1813879071282
 31
0.0
  0
MTEXT
  5
F44
102
{ACAD_XDICTIONARY
360
1E05
102
}
330
18
100
AcDbEntity
  8
0
100
AcDbMText
 10
1462.170050894562
 20
1010.332406049244
 30
0.0
 40
10.79839512592917
 41
0.0
 71
     1
 72
     5
  1
\Ftxt.shx,bigfont.shx|c128;\M+18C5E\M+18140\M+18140\M+18140\M+18140\M+194D4
  7
JL
 73
     1
 44
1.0
1001
ACAD
1000
MTEXTBEGIN
1070
    73
1070
     1
1070
    44
1040
1.0
1070
    74
1070
     0
1000
MTEXTEND
  0
LINE
  5
F45
330
18
100
AcDbEntity
  8
0
100
AcDbLine
 10
1375.568831308856
 20
1014.215868639221
 30
0.0
 11
1375.568831308856
 21
909.8313824219056
 31
0.0
  0
LINE
  5
F46
330
18
100
AcDbEntity
  8
0
100
AcDbLine
 10
1447.558132148384
 20
1014.215868639221
 30
0.0
 11
1447.558132148384
 21
909.8313824219056
 31
0.0
  0
MTEXT
  5
F47
102
{ACAD_XDICTIONARY
360
1E07
102
}
330
18
100
AcDbEntity
  8
0
100
AcDbMText
 10
1396.641497646911
 20
921.5456884909851
 30
0.0
 40
8.998662604940978
 41
0.0
 71
     1
 72
     5
  1
\Ftxt.shx,bigfont.shx|c128;\M+1835E\M+18350\M+1836D\M+18352\M+190DA\M+18EE8
  7
JL
 73
     1
 44
1.0
1001
ACAD
1000
MTEXTBEGIN
1070
    73
1070
     1
1070
    44
1040
1.0
1070
    74
1070
     0
1000
MTEXTEND
  0
MTEXT
  5
F48
102
{ACAD_XDICTIONARY
360
1E09
102
}
330
18
100
AcDbEntity
  8
0
100
AcDbMText
 10
1388.497339557162
 20
935.8104713022466
 30
0.0
 40
8.998662604940978
 41
0.0
 71
     1
 72
     5
  1
\Ftxt.shx,bigfont.shx|c128;\M+18374 \M+1838C \M+18341 \M+1836D \M+18359 \M+1838B\M+18140  
  7
JL
 73
     1
 44
1.0
1001
ACAD
1000
MTEXTBEGIN
1070
    73
1070
     1
1070
    44
1040
1.0
1070
    74
1070
     0
1000
MTEXTEND
  0
MTEXT
  5
F49
102
{ACAD_XDICTIONARY
360
1E0B
102
}
330
18
100
AcDbEntity
  8
0
100
AcDbMText
 10
1400.560301783019
 20
950.5031095319736
 30
0.0
 40
8.998662604940978
 41
0.0
 71
     1
 72
     5
  1
\Ftxt.shx,bigfont.shx|c128;\M+1837A \M+188EA \M+18358\M+18140  
  7
JL
 73
     1
 44
1.0
1001
ACAD
1000
MTEXTBEGIN
1070
    73
1070
     1
1070
    44
1040
1.0
1070
    74
1070
     0
1000
MTEXTEND
  0
MTEXT
  5
F4A
102
{ACAD_XDICTIONARY
360
1E0D
102
}
330
18
100
AcDbEntity
  8
0
100
AcDbMText
 10
1386.785347807306
 20
1010.332406049244
 30
0.0
 40
10.79839512592917
 41
0.0
 71
     1
 72
     5
  1
\Ftxt.shx,bigfont.shx|c128;\M+19569\M+18140          \M+196BC
  7
JL
 73
     1
 44
1.0
1001
ACAD
1000
MTEXTBEGIN
1070
    73
1070
     1
1070
    44
1040
1.0
1070
    74
1070
     0
1000
MTEXTEND
  0
MTEXT
  5
F4C
102
{ACAD_XDICTIONARY
360
1E0F
102
}
330
18
100
AcDbEntity
  8
0
100
AcDbMText
 10
1396.875738904855
 20
964.106067031429
 30
0.0
 40
8.998662604940978
 41
0.0
 71
     1
 72
     5
  1
\Ftxt.shx,bigfont.shx|c128;\M+18352 \M+1836C \M+1834E \M+1835E\M+18140\fＭＳ 明朝|b0|i0|c128|p17; 
  7
JL
 73
     1
 44
1.0
1001
ACAD
1000
MTEXTBEGIN
1070
    73
1070
     1
1070
    44
1040
1.0
1070
    74
1070
     0
1000
MTEXTEND
  0
MTEXT
  5
F4D
102
{ACAD_XDICTIONARY
360
1E11
102
}
330
18
100
AcDbEntity
  8
0
100
AcDbMText
 10
1391.923721626334
 20
993.1389885207575
 30
0.0
 40
8.998662604940978
 41
0.0
 71
     1
 72
     5
  1
\Ftxt.shx,bigfont.shx|c128;\M+1837D\M+1834F\M+1836C\M+18362\M+18367\M+182D7\M+1815B\M+18358\M+18140
  7
JL
 73
     1
 44
1.0
1001
ACAD
1000
MTEXTBEGIN
1070
    73
1070
     1
1070
    44
1040
1.0
1070
    74
1070
     0
1000
MTEXTEND
  0
MTEXT
  5
F4E
330
18
100
AcDbEntity
  8
0
100
AcDbMText
 10
1360.933506139147
 20
992.6146944008353
 30
0.0
 40
8.998662604940978
 41
0.0
 71
     1
 72
     5
  1
\Ftxt.shx,bigfont.shx|c128;1
  7
JL
 73
     1
 44
1.0
1001
ACAD
1000
MTEXTBEGIN
1070
    73
1070
     1
1070
    44
1040
1.0
1070
    74
1070
     0
1000
MTEXTEND
  0
LINE
  5
F4F
330
18
100
AcDbEntity
  8
0
100
AcDbLine
 10
1555.542083407675
 20
1014.215868639221
 30
0.0
 11
1555.542083407675
 21
909.8313824219056
 31
0.0
  0
LINE
  5
F50
330
18
100
AcDbEntity
  8
0
100
AcDbLine
 10
1519.547432987912
 20
1014.215868639221
 30
0.0
 11
1519.547432987912
 21
909.8313824219056
 31
0.0
  0
MTEXT
  5
F53
330
18
100
AcDbEntity
  8
0
100
AcDbMText
 10
1562.640285869952
 20
921.7547839794045
 30
0.0
 40
8.998662604940978
 41
0.0
 71
     1
 72
     5
  1
\Ftxt.shx,bigfont.shx|c128;1
  7
JL
 73
     1
 44
1.0
1001
ACAD
1000
MTEXTBEGIN
1070
    73
1070
     1
1070
    44
1040
1.0
1070
    74
1070
     0
1000
MTEXTEND
  0
MTEXT
  5
F54
330
18
100
AcDbEntity
  8
0
100
AcDbMText
 10
1533.143999315778
 20
921.7232011368935
 30
0.0
 40
8.998662604940978
 41
0.0
 71
     1
 72
     5
  1
\Ftxt.shx,bigfont.shx|c128;1/8
  7
JL
 73
     1
 44
1.0
1001
ACAD
1000
MTEXTBEGIN
1070
    73
1070
     1
1070
    44
1040
1.0
1070
    74
1070
     0
1000
MTEXTEND
  0
MTEXT
  5
F56
330
18
100
AcDbEntity
  8
0
100
AcDbMText
 10
1532.725601938422
 20
950.1154233330645
 30
0.0
 40
8.998662604940978
 41
0.0
 71
     1
 72
     5
  1
\Ftxt.shx,bigfont.shx|c128;1/4
  7
JL
 73
     1
 44
1.0
1001
ACAD
1000
MTEXTBEGIN
1070
    73
1070
     1
1070
    44
1040
1.0
1070
    74
1070
     0
1000
MTEXTEND
  0
MTEXT
  5
F57
330
18
100
AcDbEntity
  8
0
100
AcDbMText
 10
1567.902746052789
 20
936.1284468002022
 30
0.0
 40
8.998662604940978
 41
0.0
 71
     1
 72
     5
  1
\Ftxt.shx,bigfont.shx|c128;1
  7
JL
 73
     1
 44
1.0
1001
ACAD
1000
MTEXTBEGIN
1070
    73
1070
     1
1070
    44
1040
1.0
1070
    74
1070
     0
1000
MTEXTEND
  0
MTEXT
  5
F58
330
18
100
AcDbEntity
  8
0
100
AcDbMText
 10
1567.62787042029
 20
949.9392645495216
 30
0.0
 40
8.998662604940978
 41
0.0
 71
     1
 72
     5
  1
\Ftxt.shx,bigfont.shx|c128;15
  7
JL
 73
     1
 44
1.0
1001
ACAD
1000
MTEXTBEGIN
1070
    73
1070
     1
1070
    44
1040
1.0
1070
    74
1070
     0
1000
MTEXTEND
  0
MTEXT
  5
F59
102
{ACAD_XDICTIONARY
360
1E13
102
}
330
18
100
AcDbEntity
  8
0
100
AcDbMText
 10
1525.307914113141
 20
1009.861244783734
 30
0.0
 40
10.79839512592917
 41
0.0
 71
     1
 72
     5
  1
\Ftxt.shx,bigfont.shx|c128;\M+1838D\M+18140\M+18140\M+18C61
  7
JL
 73
     1
 44
1.0
1001
ACAD
1000
MTEXTBEGIN
1070
    73
1070
     1
1070
    44
1040
1.0
1070
    74
1070
     0
1000
MTEXTEND
  0
MTEXT
  5
F5A
330
18
100
AcDbEntity
  8
0
100
AcDbMText
 10
1466.049315910967
 20
964.512242092751
 30
0.0
 40
8.998662604940978
 41
0.0
 71
     1
 72
     5
  1
\Ftxt.shx,bigfont.shx|c128;NN82026
  7
JL
 73
     1
 44
1.0
1001
ACAD
1000
MTEXTBEGIN
1070
    73
1070
     1
1070
    44
1040
1.0
1070
    74
1070
     0
1000
MTEXTEND
  0
MTEXT
  5
F5B
330
18
100
AcDbEntity
  8
0
100
AcDbMText
 10
1567.352994787792
 20
993.7198874718244
 30
0.0
 40
8.998662604940978
 41
0.0
 71
     1
 72
     5
  1
\Ftxt.shx,bigfont.shx|c128;1
  7
JL
 73
     1
 44
1.0
1001
ACAD
1000
MTEXTBEGIN
1070
    73
1070
     1
1070
    44
1040
1.0
1070
    74
1070
     0
1000
MTEXTEND
  0
MTEXT
  5
F5D
330
18
100
AcDbEntity
  8
0
100
AcDbMText
 10
1567.655891348815
 20
979.1532238654212
 30
0.0
 40
8.998662604940978
 41
0.0
 71
     1
 72
     5
  1
\Ftxt.shx,bigfont.shx|c128;1
  7
JL
 73
     1
 44
1.0
1001
ACAD
1000
MTEXTBEGIN
1070
    73
1070
     1
1070
    44
1040
1.0
1070
    74
1070
     0
1000
MTEXTEND
  0
MTEXT
  5
F5E
330
18
100
AcDbEntity
  8
0
100
AcDbMText
 10
1567.902746052789
 20
964.9241671360131
 30
0.0
 40
8.998662604940978
 41
0.0
 71
     1
 72
     5
  1
\Ftxt.shx,bigfont.shx|c128;1
  7
JL
 73
     1
 44
1.0
1001
ACAD
1000
MTEXTBEGIN
1070
    73
1070
     1
1070
    44
1040
1.0
1070
    74
1070
     0
1000
MTEXTEND
  0
MTEXT
  5
F5F
102
{ACAD_XDICTIONARY
360
1E15
102
}
330
18
100
AcDbEntity
  8
0
100
AcDbMText
 10
1558.122432473685
 20
1009.861244783734
 30
0.0
 40
10.79839512592917
 41
0.0
 71
     1
 72
     5
  1
\Ftxt.shx,bigfont.shx|c128;\M+19094   \M+197CA
  7
JL
 73
     1
 44
1.0
1001
ACAD
1000
MTEXTBEGIN
1070
    73
1070
     1
1070
    44
1040
1.0
1070
    74
1070
     0
1000
MTEXTEND
  0
LINE
  5
F81
330
18
100
AcDbEntity
  8
0
100
AcDbLine
 10
1582.538071222499
 20
1014.215868639221
 30
0.0
 11
1582.538071222499
 21
924.2292425898112
 31
0.0
  0
MTEXT
  5
F82
102
{ACAD_XDICTIONARY
360
1E17
102
}
330
18
100
AcDbEntity
  8
0
100
AcDbMText
 10
1585.32465020867
 20
906.1086345530458
 30
0.0
 40
8.0
 41
0.0
 71
     1
 72
     5
  1
\Ftxt.shx,bigfont.shx|c128;(1/8Px5/16H-34L\M+1816A
  7
JL
 73
     1
 44
1.0
1001
ACAD
1000
MTEXTBEGIN
1070
    73
1070
     1
1070
    44
1040
1.0
1070
    74
1070
     0
1000
MTEXTEND
  0
MTEXT
  5
F85
102
{ACAD_XDICTIONARY
360
1E19
102
}
330
18
100
AcDbEntity
  8
0
100
AcDbMText
 10
1595.417128409765
 20
1009.861244783734
 30
0.0
 40
10.79839512592917
 41
0.0
 71
     1
 72
     5
  1
\Ftxt.shx,bigfont.shx|c128;\M+194F5           \M+18D6C
  7
JL
 73
     1
 44
1.0
1001
ACAD
1000
MTEXTBEGIN
1070
    73
1070
     1
1070
    44
1040
1.0
1070
    74
1070
     0
1000
MTEXTEND
  0
MTEXT
  5
F87
102
{ACAD_XDICTIONARY
360
1E1B
102
}
330
18
100
AcDbEntity
  8
0
100
AcDbMText
 10
1602.204057549555
 20
978.9319176048488
 30
0.0
 40
8.998662604940978
 41
0.0
 71
     1
 72
     5
  1
\Ftxt.shx,bigfont.shx|c128;\M+189A9\M+18140\M+18140\M+19046
  7
JL
 73
     1
 44
1.0
1001
ACAD
1000
MTEXTBEGIN
1070
    73
1070
     1
1070
    44
1040
1.0
1070
    74
1070
     0
1000
MTEXTEND
  0
MTEXT
  5
F88
102
{ACAD_XDICTIONARY
360
1E1D
102
}
330
18
100
AcDbEntity
  8
0
100
AcDbMText
 10
1596.189764024966
 20
964.5340574369436
 30
0.0
 40
8.998662604940978
 41
0.0
 71
     1
 72
     5
  1
\Ftxt.shx,bigfont.shx|c128;PT 1/4\M+18140\M+18B6A\M+19046
  7
JL
 73
     1
 44
1.0
1001
ACAD
1000
MTEXTBEGIN
1070
    73
1070
     1
1070
    44
1040
1.0
1070
    74
1070
     0
1000
MTEXTEND
  0
LINE
  5
14C4
330
18
100
AcDbEntity
  8
中心線
 48
0.5
100
AcDbLine
 10
1497.050776475558
 20
871.1813879071282
 30
0.0
 11
1497.05077647556
 21
665.9233711415367
 31
0.0
  0
LINE
  5
1623
330
18
100
AcDbEntity
  8
中心線
 48
0.5
100
AcDbLine
 10
1543.15077647556
 20
681.9233711415368
 30
0.0
 11
1516.05077647556
 21
681.9233711415368
 31
0.0
  0
DIMENSION
  5
1860
330
18
100
AcDbEntity
  8
標註線
100
AcDbDimension
  2
*D55
 10
1517.05077647556
 20
647.5674802282951
 30
0.0
 11
1497.05077647556
 21
652.5674802282951
 31
0.0
 70
    32
  1
%%c40
 71
     5
 42
-1.0
  3
STANDARD-2
100
AcDbAlignedDimension
 13
1477.05077647556
 23
666.9233711415367
 33
0.0
 14
1517.05077647556
 24
666.9233711415367
 34
0.0
100
AcDbRotatedDimension
  0
DIMENSION
  5
186D
330
18
100
AcDbEntity
  8
標註線
100
AcDbDimension
  2
*D56
 10
1456.196593560678
 20
696.9233711415368
 30
0.0
 11
1451.196593560677
 21
681.923371141537
 31
0.0
 70
    32
 71
     5
 42
30.0
  3
STANDARD-2
100
AcDbAlignedDimension
 13
1477.05077647556
 23
666.9233711415367
 33
0.0
 14
1479.05077647556
 24
696.9233711415368
 34
0.0
 50
90.0
100
AcDbRotatedDimension
  0
LEADER
  5
18B5
330
18
100
AcDbEntity
  8
標註線
 62
     6
100
AcDbLeader
  3
STANDARD-2
 76
     2
 10
1487.05077647556
 20
666.9233711415367
 30
0.0
 10
1456.27352554944
 20
649.764042737921
 30
0.0
211
0.8660254037844387
221
0.5
231
0.0
  0
TEXT
  5
18CE
330
18
100
AcDbEntity
  8
DIM
100
AcDbText
 10
1453.568004391309
 20
646.3851343265465
 30
0.0
 40
9.0
  1
1
100
AcDbText
  0
LEADER
  5
18CF
330
18
100
AcDbEntity
  8
標註線
 62
     6
100
AcDbLeader
  3
STANDARD-2
 76
     2
 10
1482.058756611302
 20
696.9233711415366
 30
0.0
 10
1447.97510056784
 20
717.1286201281962
 30
0.0
211
0.8660254037844387
221
-0.5
231
0.0
  0
TEXT
  5
18E7
330
18
100
AcDbEntity
  8
DIM
100
AcDbText
 10
1442.564996722646
 20
717.6691521875191
 30
0.0
 40
9.0
  1
2
100
AcDbText
  0
LEADER
  5
18EB
330
18
100
AcDbEntity
  8
標註線
 62
     6
100
AcDbLeader
  3
STANDARD-2
 76
     2
 10
1489.486562913187
 20
707.0675014695016
 30
0.0
 10
1470.136899984881
 20
718.2390345698876
 30
0.0
211
0.8660254037844387
221
-0.5
231
0.0
  0
TEXT
  5
18ED
330
18
100
AcDbEntity
  8
DIM
100
AcDbText
 10
1462.608293680522
 20
716.9666141394733
 30
0.0
 40
9.0
  1
3
100
AcDbText
  0
LEADER
  5
18EE
330
18
100
AcDbEntity
  8
標註線
 62
     6
100
AcDbLeader
  3
STANDARD-2
 76
     2
 10
1489.060776475559
 20
770.4502866849987
 30
0.0
 10
1470.136899984881
 20
781.3759918710028
 30
0.0
211
0.8660254037844387
221
-0.5
231
0.0
  0
TEXT
  5
18EF
330
18
100
AcDbEntity
  8
DIM
100
AcDbText
 10
1462.97476841638
 20
780.1035714405885
 30
0.0
 40
9.0
  1
4
100
AcDbText
  0
LEADER
  5
18F1
330
18
100
AcDbEntity
  8
標註線
 62
     6
100
AcDbLeader
  3
STANDARD-2
 76
     2
 10
1487.05077647556
 20
861.232291731423
 30
0.0
 10
1470.136899984881
 20
851.4670605864898
 30
0.0
211
0.8660254037844387
221
0.5
231
0.0
  0
TEXT
  5
18F2
330
18
100
AcDbEntity
  8
DIM
100
AcDbText
 10
1464.564219057167
 20
845.1437172707962
 30
0.0
 40
9.0
  1
5
100
AcDbText
  0
LEADER
  5
18F4
330
18
100
AcDbEntity
  8
標註線
 62
     6
100
AcDbLeader
  3
STANDARD-2
 76
     2
 10
1534.309782481861
 20
686.1191320648827
 30
0.0
 10
1557.410277212695
 20
715.7241952480305
 30
0.0
211
-0.8660254037844387
221
-0.5
231
0.0
  0
TEXT
  5
18F6
330
18
100
AcDbEntity
  8
DIM
100
AcDbText
 10
1557.590833303068
 20
714.6055755426004
 30
0.0
 40
9.0
  1
6
100
AcDbText
  0
MTEXT
  5
190F
330
18
100
AcDbEntity
  8
0
100
AcDbMText
 10
1465.501500153808
 20
993.395348983069
 30
0.0
 40
8.998662604940978
 41
0.0
 71
     1
 72
     5
  1
\Ftxt.shx,bigfont.shx|c128;NNNM-C1-1
  7
JL
 73
     1
 44
1.0
1001
ACAD
1000
MTEXTBEGIN
1070
    73
1070
     1
1070
    44
1040
1.0
1070
    74
1070
     0
1000
MTEXTEND
  0
MTEXT
  5
1915
102
{ACAD_XDICTIONARY
360
1E21
102
}
330
18
100
AcDbEntity
  8
0
100
AcDbMText
 10
1399.428847527444
 20
978.7411283528516
 30
0.0
 40
8.998662604940978
 41
0.0
 71
     1
 72
     5
  1
\Ftxt.shx,bigfont.shx|c128;\M+18EE6\M+18140\M+19574\M+18140\M+18DC0\M+18140
  7
JL
 73
     1
 44
1.0
1001
ACAD
1000
MTEXTBEGIN
1070
    73
1070
     1
1070
    44
1040
1.0
1070
    74
1070
     0
1000
MTEXTEND
  0
MTEXT
  5
1922
330
18
100
AcDbEntity
  8
0
100
AcDbMText
 10
1465.501500153808
 20
978.9974888151636
 30
0.0
 40
8.998662604940978
 41
0.0
 71
     1
 72
     5
  1
\Ftxt.shx,bigfont.shx|c128;NNNM-C1-2
  7
JL
 73
     1
 44
1.0
1001
ACAD
1000
MTEXTBEGIN
1070
    73
1070
     1
1070
    44
1040
1.0
1070
    74
1070
     0
1000
MTEXTEND
  0
MTEXT
  5
1923
330
18
100
AcDbEntity
  8
0
100
AcDbMText
 10
1466.049315910967
 20
949.7852079006042
 30
0.0
 40
8.998662604940978
 41
0.0
 71
     1
 72
     5
  1
\Ftxt.shx,bigfont.shx|c128;NN82021
  7
JL
 73
     1
 44
1.0
1001
ACAD
1000
MTEXTBEGIN
1070
    73
1070
     1
1070
    44
1040
1.0
1070
    74
1070
     0
1000
MTEXTEND
  0
MTEXT
  5
1924
330
18
100
AcDbEntity
  8
0
100
AcDbMText
 10
1466.04931365162
 20
935.3873489906868
 30
0.0
 40
8.998662604940978
 41
0.0
 71
     1
 72
     5
  1
\Ftxt.shx,bigfont.shx|c128;NN82027
  7
JL
 73
     1
 44
1.0
1001
ACAD
1000
MTEXTBEGIN
1070
    73
1070
     1
1070
    44
1040
1.0
1070
    74
1070
     0
1000
MTEXTEND
  0
MTEXT
  5
1925
330
18
100
AcDbEntity
  8
0
100
AcDbMText
 10
1465.501500153809
 20
921.4060481435415
 30
0.0
 40
8.998662604940978
 41
0.0
 71
     1
 72
     5
  1
\Ftxt.shx,bigfont.shx|c128;NNNM-C1-6
  7
JL
 73
     1
 44
1.0
1001
ACAD
1000
MTEXTBEGIN
1070
    73
1070
     1
1070
    44
1040
1.0
1070
    74
1070
     0
1000
MTEXTEND
  0
MTEXT
  5
1929
102
{ACAD_XDICTIONARY
360
1E23
102
}
330
18
100
AcDbEntity
  8
0
100
AcDbMText
 10
1375.264259743629
 20
607.5382824022778
 30
0.0
 40
6.748996953705733
 41
0.0
 71
     1
 72
     5
  1
\Ftxt.shx,bigfont.shx|c128;\M+197D1\M+19546\M+188AE
  7
JL
 73
     1
 44
1.0
1001
ACAD
1000
MTEXTBEGIN
1070
    73
1070
     1
1070
    44
1040
1.0
1070
    74
1070
     0
1000
MTEXTEND
  0
MTEXT
  5
192A
330
18
100
AcDbEntity
  8
0
100
AcDbMText
 10
1469.551806431993
 20
622.7903740033477
 30
0.0
 40
6.748996953705733
 41
0.0
 71
     1
 72
     5
  1
\Ftxt.shx,bigfont.shx|c128;NOT/S
  7
JL
 73
     1
 44
1.0
1001
ACAD
1000
MTEXTBEGIN
1070
    73
1070
     1
1070
    44
1040
1.0
1070
    74
1070
     0
1000
MTEXTEND
  0
MTEXT
  5
1935
102
{ACAD_XDICTIONARY
360
1E25
102
}
330
18
100
AcDbEntity
  8
0
  6
ByBlock
 62
     3
100
AcDbMText
 10
1408.343810615438
 20
634.7697982826977
 30
0.0
 40
6.0
 41
0.0
 71
     5
 72
     1
  1
\Ftxt.shx,bigfont.shx|c128;2005\M+1944E11\M+18C8E7\M+193FA\M+18FC6\M+18D866\M+195CF\M+18D58
 73
     1
 44
1.0
1001
ACAD
1000
MTEXTBEGIN
1070
    73
1070
     1
1070
    44
1040
1.0
1070
    74
1070
     0
1000
MTEXTEND
  0
LINE
  5
1980
330
18
100
AcDbEntity
  8
標註線
100
AcDbLine
 10
1573.765223818428
 20
918.0459227211489
 30
0.0
 11
1644.313386824494
 21
918.0459227211491
 31
0.0
  0
LINE
  5
1981
330
18
100
AcDbEntity
  8
標註線
100
AcDbLine
 10
1574.84205935293
 20
915.0100432415518
 30
0.0
 11
1644.290711006899
 21
915.0100432415516
 31
0.0
  0
LWPOLYLINE
  5
19A2
330
18
100
AcDbEntity
  8
\U+56F3\U+67A2線
100
AcDbPolyline
 90
        4
 70
     1
 43
0.0
 10
1348.572843494033
 20
579.2805094004075
 10
1645.528709457085
 20
579.2805094004075
 10
1645.528709457085
 20
1014.215868639221
 10
1348.572843494033
 20
1014.215868639221
  0
MTEXT
  5
19B6
102
{ACAD_XDICTIONARY
360
1E29
102
}
330
18
100
AcDbEntity
  8
0
100
AcDbMText
 10
1602.204057549555
 20
950.1361972690377
 30
0.0
 40
8.998662604940978
 41
0.0
 71
     1
 72
     5
  1
\Ftxt.shx,bigfont.shx|c128;\M+18DAE\M+18140\M+18140\M+19046
  7
JL
 73
     1
 44
1.0
1001
ACAD
1000
MTEXTBEGIN
1070
    73
1070
     1
1070
    44
1040
1.0
1070
    74
1070
     0
1000
MTEXTEND
  0
MTEXT
  5
19B7
102
{ACAD_XDICTIONARY
360
1E2B
102
}
330
18
100
AcDbEntity
  8
0
100
AcDbMText
 10
1602.204057549555
 20
935.7383371011319
 30
0.0
 40
8.998662604940978
 41
0.0
 71
     1
 72
     5
  1
\Ftxt.shx,bigfont.shx|c128;\M+18B6A\M+18140\M+18140\M+19046
  7
JL
 73
     1
 44
1.0
1001
ACAD
1000
MTEXTBEGIN
1070
    73
1070
     1
1070
    44
1040
1.0
1070
    74
1070
     0
1000
MTEXTEND
  0
LWPOLYLINE
  5
19C3
330
18
100
AcDbEntity
  8
DIM
 48
2.0
370
    25
100
AcDbPolyline
 90
        3
 70
     1
 43
0.0
 10
1360.284876612392
 20
631.7260495511264
 10
1357.284876612392
 20
637.7260495511263
 10
1354.284876612393
 20
631.7260495511264
  0
MTEXT
  5
19C4
102
{ACAD_XDICTIONARY
360
1E2D
102
}
330
18
100
AcDbEntity
  8
DIM
100
AcDbMText
 10
1355.778196095915
 20
635.6183612169945
 30
0.0
 40
3.182730999586071
 41
1.701397057207297
 71
     1
 72
     5
  1
{\Ftxt,bigfont|c128;\M+18250}
  7
p
 73
     1
 44
1.0
1001
ACAD
1000
MTEXTBEGIN
1070
    73
1070
     1
1070
    44
1040
1.0
1070
    74
1070
     0
1000
MTEXTEND
  0
MTEXT
  5
19E0
102
{ACAD_XDICTIONARY
360
1E34
102
}
330
18
100
AcDbEntity
  8
0
100
AcDbMText
 10
1574.796094305012
 20
921.2267380523726
 30
0.0
 40
8.0
 41
0.0
 71
     1
 72
     5
  1
{\Ftxt,bigfont|c128;(1/8Px5/16H-\M+18251\M+18257\M+18144\M+18254L\M+1816A}
  7
JL
 73
     1
 44
1.0
1001
ACAD
1000
MTEXTBEGIN
1070
    73
1070
     1
1070
    44
1040
1.0
1070
    74
1070
     0
1000
MTEXTEND
  0
LINE
  5
19E1
330
18
100
AcDbEntity
  8
0
100
AcDbLine
 10
1571.096499484563
 20
924.2292425898112
 30
0.0
 11
1571.096499484563
 21
909.8313824219056
 31
0.0
  0
MTEXT
  5
19EC
102
{ACAD_XDICTIONARY
360
1E36
102
}
330
18
100
AcDbEntity
  8
DIM
100
AcDbMText
 10
1575.495119085401
 20
904.077160406878
 30
0.0
 40
3.182730999586071
 41
1.701397057207297
 71
     1
 72
     5
  1
{\Ftxt,bigfont|c128;\M+18250}
  7
p
 73
     1
 44
1.0
1001
ACAD
1000
MTEXTBEGIN
1070
    73
1070
     1
1070
    44
1040
1.0
1070
    74
1070
     0
1000
MTEXTEND
  0
LWPOLYLINE
  5
19ED
330
18
100
AcDbEntity
  8
DIM
 48
2.0
370
    25
100
AcDbPolyline
 90
        3
 70
     1
 43
0.0
 10
1579.938627403912
 20
900.182723161798
 10
1576.938627403912
 20
906.182723161798
 10
1573.938627403913
 20
900.182723161798
  0
MTEXT
  5
19EE
102
{ACAD_XDICTIONARY
360
1E38
102
}
330
18
100
AcDbEntity
  8
0
100
AcDbMText
 10
1423.257126969981
 20
607.5382824022778
 30
0.0
 40
6.748996953705733
 41
0.0
 71
     1
 72
     5
  1
{\Ftxt,bigfont|c128;\M+18FAC\~\M+196F6}
  7
JL
 73
     1
 44
1.0
1001
ACAD
1000
MTEXTBEGIN
1070
    73
1070
     1
1070
    44
1040
1.0
1070
    74
1070
     0
1000
MTEXTEND
  0
LWPOLYLINE
  5
19EF
330
18
100
AcDbEntity
  8
DIM
 48
2.0
370
    25
100
AcDbPolyline
 90
        3
 70
     1
 43
0.0
 10
1553.877239457
 20
717.2237831949297
 10
1550.877239457
 20
723.2237831949297
 10
1547.877239457001
 20
717.2237831949297
  0
MTEXT
  5
19F0
102
{ACAD_XDICTIONARY
360
1E3A
102
}
330
18
100
AcDbEntity
  8
DIM
100
AcDbMText
 10
1549.370558940523
 20
721.1160948607979
 30
0.0
 40
3.182730999586071
 41
1.701397057207297
 71
     1
 72
     5
  1
{\Ftxt,bigfont|c128;\M+18250}
  7
p
 73
     1
 44
1.0
1001
ACAD
1000
MTEXTBEGIN
1070
    73
1070
     1
1070
    44
1040
1.0
1070
    74
1070
     0
1000
MTEXTEND
  0
DIMENSION
  5
19FF
330
18
100
AcDbEntity
  8
0
100
AcDbDimension
  2
*D57
 10
1564.125395695268
 20
681.9233711415368
 30
0.0
 11
1559.125395695267
 21
699.923371141537
 31
0.0
 70
    32
 71
     5
 42
15.0
  3
STANDARD-2
100
AcDbAlignedDimension
 13
1517.05077647556
 23
666.9233711415367
 33
0.0
 14
1543.15077647556
 24
681.9233711415368
 34
0.0
 50
90.0
100
AcDbRotatedDimension
1001
ACAD
1000
DSTYLE
1002
{
1070
    79
1070
     0
1070
   179
1070
     0
1070
   341
1005
0
1070
   371
1070
    -2
1070
   372
1070
    -2
1002
}
  0
DIMENSION
  5
1A0E
330
18
100
AcDbEntity
  8
0
100
AcDbDimension
  2
*D58
 10
1582.113527878135
 20
869.5164114493232
 30
0.0
 11
1577.113527878134
 21
768.2198912954302
 31
0.0
 70
    32
  1
295
 71
     5
 42
202.5930403077864
  3
STANDARD-2
100
AcDbAlignedDimension
 13
1519.05077647556
 23
666.9233711415367
 33
0.0
 14
1511.265752933363
 24
869.5164114493232
 34
0.0
 50
90.0
100
AcDbRotatedDimension
1001
ACAD
1000
DSTYLE
1002
{
1070
    79
1070
     0
1070
   179
1070
     0
1070
   341
1005
0
1070
   371
1070
    -2
1070
   372
1070
    -2
1002
}
  0
VIEWPORT
  5
18BE
102
{ACAD_XDICTIONARY
360
1E1F
102
}
330
15
100
AcDbEntity
 67
     1
  8
0
100
AcDbViewport
 10
241.9252427184466
 20
148.5
 30
0.0
 40
483.8504854368932
 41
297.0
 68
     1
 69
     1
 12
142.5892486572266
 22
99.11291408538819
 13
0.0
 23
0.0
 14
10.0
 24
10.0
 15
10.0
 25
10.0
 16
0.0
 26
0.0
 36
1.0
 17
0.0
 27
0.0
 37
0.0
 42
50.0
 43
0.0
 44
0.0
 45
222.1517806396485
 50
0.0
 51
0.0
 72
   100
 90
    32800
  1

281
     0
 71
     1
 74
     0
110
0.0
120
0.0
130
0.0
111
1.0
121
0.0
131
0.0
112
0.0
122
1.0
132
0.0
 79
     0
146
0.0
1001
GENIUS_GENOBJ-N-SDF_13
1002
{
1000
OWNER
1000
GEN
1002
}
1001
GENIUS_GENODEF_13
1002
{
1000
HIER
1070
     0
1002
}
1002
{
1000
MANEDIT
1070
     0
1002
}
1002
{
1000
NOSEL
1070
     0
1002
}
1002
{
1000
BEHIND
1070
     0
1002
}
1002
{
1000
OTHER
1070
     0
1002
}
1002
{
1000
REACTOR
1002
}
1001
GENIUS_GENSCREG_15
1000
PF
1040
0.0
1000
DF
1040
0.0
1000
MIN
1011
0.0
1021
0.0
1031
0.0
1000
MAX
1011
483.8504854368932
1021
297.0
1031
0.0
1000
FLAGS
1070
     4
  0
ENDSEC
  0
SECTION
  2
OBJECTS
  0
DICTIONARY
  5
C
330
0
100
AcDbDictionary
281
     1
  3
ACAD_2007HEADERVARS_RT
350
1DE6
  3
ACAD_CIP_PREVIOUS_PRODUCT_INFO
350
1D9A
  3
ACAD_COLOR
350
19CB
  3
ACAD_GROUP
350
D
  3
ACAD_LAYOUT
350
19CE
  3
ACAD_MATERIAL
350
19CA
  3
ACAD_MLEADERSTYLE
350
1AA3
  3
ACAD_MLINESTYLE
350
1B
  3
ACAD_PLOTSETTINGS
350
19CF
  3
ACAD_PLOTSTYLENAME
350
19C8
  3
ACAD_SCALELIST
350
1A91
  3
ACAD_TABLESTYLE
350
19CC
  3
ACAD_VISUALSTYLE
350
1A78
  3
ACDB_RECOMPOSE_DATA
350
1DE4
  3
ACDBVARIABLEDICTIONARY
350
14C2
  3
AcmDictionary
350
1B02
  3
AMG
350
1AB5
  3
AMGSNAPSETTINGS
350
1B46
  3
DWGPROPS
350
1DE5
  0
DICTIONARY
  5
1B61
330
8
100
AcDbDictionary
280
     1
281
     1
  0
DICTIONARY
  5
1B4D
330
E
100
AcDbDictionary
280
     1
281
     1
  3
ADSK_XREC_LAYER_RECONCILED
360
1B4E
  0
DICTIONARY
  5
1B4F
330
2A5
100
AcDbDictionary
280
     1
281
     1
  3
ADSK_XREC_LAYER_RECONCILED
360
1B50
  0
DICTIONARY
  5
1B51
330
934
100
AcDbDictionary
280
     1
281
     1
  3
ADSK_XREC_LAYER_RECONCILED
360
1B52
  0
DICTIONARY
  5
1B55
330
1497
100
AcDbDictionary
280
     1
281
     1
  3
ADSK_XREC_LAYER_RECONCILED
360
1B56
  0
DICTIONARY
  5
1B57
330
1498
100
AcDbDictionary
280
     1
281
     1
  3
ADSK_XREC_LAYER_RECONCILED
360
1B58
  0
DICTIONARY
  5
1B59
330
14A3
100
AcDbDictionary
280
     1
281
     1
  3
ADSK_XREC_LAYER_RECONCILED
360
1B5A
  0
DICTIONARY
  5
1B5B
330
14A4
100
AcDbDictionary
280
     1
281
     1
  3
ADSK_XREC_LAYER_RECONCILED
360
1B5C
  0
DICTIONARY
  5
1E27
330
1960
100
AcDbDictionary
280
     1
281
     1
  3
ACAD_MTEXT_RT
360
1E28
  0
DICTIONARY
  5
1DEB
330
D6A
100
AcDbDictionary
280
     1
281
     1
  3
ACAD_MTEXT_RT
360
1DEC
  0
DICTIONARY
  5
1DED
330
D6B
100
AcDbDictionary
280
     1
281
     1
  3
ACAD_MTEXT_RT
360
1DEE
  0
DICTIONARY
  5
1DEF
330
D6F
100
AcDbDictionary
280
     1
281
     1
  3
ACAD_MTEXT_RT
360
1DF0
  0
DICTIONARY
  5
1DF1
330
D76
100
AcDbDictionary
280
     1
281
     1
  3
ACAD_MTEXT_RT
360
1DF2
  0
DICTIONARY
  5
1DF3
330
D81
100
AcDbDictionary
280
     1
281
     1
  3
ACAD_MTEXT_RT
360
1DF4
  0
DICTIONARY
  5
1DF5
330
D82
100
AcDbDictionary
280
     1
281
     1
  3
ACAD_MTEXT_RT
360
1DF6
  0
DICTIONARY
  5
1DF7
330
D88
100
AcDbDictionary
280
     1
281
     1
  3
ACAD_MTEXT_RT
360
1DF8
  0
DICTIONARY
  5
1DF9
330
D89
100
AcDbDictionary
280
     1
281
     1
  3
ACAD_MTEXT_RT
360
1DFA
  0
DICTIONARY
  5
1DFB
330
D8B
100
AcDbDictionary
280
     1
281
     1
  3
ACAD_MTEXT_RT
360
1DFC
  0
DICTIONARY
  5
1DFD
330
DB8
100
AcDbDictionary
280
     1
281
     1
  3
ACAD_MTEXT_RT
360
1DFE
  0
DICTIONARY
  5
1DFF
330
DBC
100
AcDbDictionary
280
     1
281
     1
  3
ACAD_MTEXT_RT
360
1E00
  0
DICTIONARY
  5
1E01
330
DBF
100
AcDbDictionary
280
     1
281
     1
  3
ACAD_MTEXT_RT
360
1E02
  0
DICTIONARY
  5
1E03
330
E55
100
AcDbDictionary
280
     1
281
     1
  3
ACAD_MTEXT_RT
360
1E04
  0
DICTIONARY
  5
1E05
330
F44
100
AcDbDictionary
280
     1
281
     1
  3
ACAD_MTEXT_RT
360
1E06
  0
DICTIONARY
  5
1E07
330
F47
100
AcDbDictionary
280
     1
281
     1
  3
ACAD_MTEXT_RT
360
1E08
  0
DICTIONARY
  5
1E09
330
F48
100
AcDbDictionary
280
     1
281
     1
  3
ACAD_MTEXT_RT
360
1E0A
  0
DICTIONARY
  5
1E0B
330
F49
100
AcDbDictionary
280
     1
281
     1
  3
ACAD_MTEXT_RT
360
1E0C
  0
DICTIONARY
  5
1E0D
330
F4A
100
AcDbDictionary
280
     1
281
     1
  3
ACAD_MTEXT_RT
360
1E0E
  0
DICTIONARY
  5
1E0F
330
F4C
100
AcDbDictionary
280
     1
281
     1
  3
ACAD_MTEXT_RT
360
1E10
  0
DICTIONARY
  5
1E11
330
F4D
100
AcDbDictionary
280
     1
281
     1
  3
ACAD_MTEXT_RT
360
1E12
  0
DICTIONARY
  5
1E13
330
F59
100
AcDbDictionary
280
     1
281
     1
  3
ACAD_MTEXT_RT
360
1E14
  0
DICTIONARY
  5
1E15
330
F5F
100
AcDbDictionary
280
     1
281
     1
  3
ACAD_MTEXT_RT
360
1E16
  0
DICTIONARY
  5
1E17
330
F82
100
AcDbDictionary
280
     1
281
     1
  3
ACAD_MTEXT_RT
360
1E18
  0
DICTIONARY
  5
1E19
330
F85
100
AcDbDictionary
280
     1
281
     1
  3
ACAD_MTEXT_RT
360
1E1A
  0
DICTIONARY
  5
1E1B
330
F87
100
AcDbDictionary
280
     1
281
     1
  3
ACAD_MTEXT_RT
360
1E1C
  0
DICTIONARY
  5
1E1D
330
F88
100
AcDbDictionary
280
     1
281
     1
  3
ACAD_MTEXT_RT
360
1E1E
  0
DICTIONARY
  5
1E21
330
1915
100
AcDbDictionary
280
     1
281
     1
  3
ACAD_MTEXT_RT
360
1E22
  0
DICTIONARY
  5
1E23
330
1929
100
AcDbDictionary
280
     1
281
     1
  3
ACAD_MTEXT_RT
360
1E24
  0
DICTIONARY
  5
1E25
330
1935
100
AcDbDictionary
280
     1
281
     1
  3
ACAD_MTEXT_RT
360
1E26
  0
DICTIONARY
  5
1E29
330
19B6
100
AcDbDictionary
280
     1
281
     1
  3
ACAD_MTEXT_RT
360
1E2A
  0
DICTIONARY
  5
1E2B
330
19B7
100
AcDbDictionary
280
     1
281
     1
  3
ACAD_MTEXT_RT
360
1E2C
  0
DICTIONARY
  5
1E2D
330
19C4
100
AcDbDictionary
280
     1
281
     1
  3
ACAD_MTEXT_RT
360
1E2E
  0
DICTIONARY
  5
1E34
330
19E0
100
AcDbDictionary
280
     1
281
     1
  3
ACAD_MTEXT_RT
360
1E35
  0
DICTIONARY
  5
1E36
330
19EC
100
AcDbDictionary
280
     1
281
     1
  3
ACAD_MTEXT_RT
360
1E37
  0
DICTIONARY
  5
1E38
330
19EE
100
AcDbDictionary
280
     1
281
     1
  3
ACAD_MTEXT_RT
360
1E39
  0
DICTIONARY
  5
1E3A
330
19F0
100
AcDbDictionary
280
     1
281
     1
  3
ACAD_MTEXT_RT
360
1E3B
  0
DICTIONARY
  5
1E1F
330
18BE
100
AcDbDictionary
280
     1
281
     1
  3
ACAD_XREC_ROUNDTRIP
360
1E20
  0
DICTIONARY
  5
1DE6
102
{ACAD_REACTORS
330
C
102
}
330
C
100
AcDbDictionary
281
     1
  3
DIMARCSYM
350
1DE7
  3
DIMLTEX1
350
1DE9
  3
DIMLTEX2
350
1DEA
  3
DIMLTYPE
350
1DE8
  0
XRECORD
  5
1D9A
102
{ACAD_REACTORS
330
C
102
}
330
C
100
AcDbXrecord
280
     1
300
AMECH_PP
300
2012
300
AMECH_PP_F_S
  0
DICTIONARY
  5
19CB
102
{ACAD_REACTORS
330
C
102
}
330
C
100
AcDbDictionary
281
     1
  0
DICTIONARY
  5
D
102
{ACAD_REACTORS
330
C
102
}
330
C
100
AcDbDictionary
281
     1
  0
DICTIONARY
  5
19CE
102
{ACAD_REACTORS
330
C
102
}
330
C
100
AcDbDictionary
281
     1
  3
Model
350
19D0
  3
\U+30EC\U+30A4\U+30A2\U+30A6\U+30C81
350
19D1
1001
ACADSTRINGINFO
1000
MIFCodePage
1070
     1
  0
DICTIONARY
  5
19CA
102
{ACAD_REACTORS
330
C
102
}
330
C
100
AcDbDictionary
281
     1
  3
ByBlock
350
1A68
  3
ByLayer
350
1A60
  3
Global
350
1A70
  0
DICTIONARY
  5
1AA3
102
{ACAD_REACTORS
330
C
102
}
330
C
100
AcDbDictionary
281
     1
  3
Standard
350
1AA4
  0
DICTIONARY
  5
1B
102
{ACAD_REACTORS
330
C
102
}
330
C
100
AcDbDictionary
281
     1
  3
STANDARD
350
1C
  0
DICTIONARY
  5
19CF
102
{ACAD_REACTORS
330
C
102
}
330
C
100
AcDbDictionary
281
     1
  0
ACDBDICTIONARYWDFLT
  5
19C8
102
{ACAD_REACTORS
330
C
102
}
330
C
100
AcDbDictionary
281
     1
  3
Normal
350
19C9
100
AcDbDictionaryWithDefault
340
19C9
  0
DICTIONARY
  5
1A91
102
{ACAD_REACTORS
330
C
102
}
330
C
100
AcDbDictionary
281
     1
  3
A0
350
1A92
  3
A1
350
1A93
  3
A2
350
1A94
  3
A3
350
1A95
  3
A4
350
1A96
  3
A5
350
1A97
  3
A6
350
1A98
  3
A7
350
1A99
  3
A8
350
1A9A
  3
A9
350
1A9B
  3
B0
350
1A9C
  3
B1
350
1A9D
  3
B2
350
1A9E
  3
B3
350
1A9F
  3
B4
350
1AA0
  3
B5
350
1AA1
  3
B6
350
1AA2
  0
DICTIONARY
  5
19CC
102
{ACAD_REACTORS
330
C
102
}
330
C
100
AcDbDictionary
281
     1
  3
Standard
350
19CD
  0
DICTIONARY
  5
1A78
102
{ACAD_REACTORS
330
C
102
}
330
C
100
AcDbDictionary
281
     1
  3
2dWireframe
350
1A7E
  3
Basic
350
1A7D
  3
Brighten
350
1A84
  3
ColorChange
350
1A88
  3
Conceptual
350
1A81
  3
Dim
350
1A83
  3
EdgeColorOff
350
1A90
  3
Facepattern
350
1A87
  3
Flat
350
1A79
  3
FlatWithEdges
350
1A7A
  3
Gouraud
350
1A7B
  3
GouraudWithEdges
350
1A7C
  3
Hidden
350
1A80
  3
JitterOff
350
1A8E
  3
Linepattern
350
1A86
  3
OverhangOff
350
1A8F
  3
Realistic
350
1A82
  3
Shaded
350
1A8D
  3
Shaded with edges
350
1A8C
  3
Shades of Gray
350
1A89
  3
Sketchy
350
1A8A
  3
Thicken
350
1A85
  3
Wireframe
350
1A7F
  3
X-Ray
350
1A8B
  0
XRECORD
  5
1DE4
102
{ACAD_REACTORS
330
C
102
}
330
C
100
AcDbXrecord
280
     1
 90
        1
330
19CD
  0
DICTIONARY
  5
14C2
102
{ACAD_REACTORS
330
C
102
}
330
C
100
AcDbDictionary
281
     1
  3
CANNOSCALE
350
1D87
  3
CMLEADERSTYLE
350
1D86
  3
CTABLESTYLE
350
19EB
  3
DIMASSOC
350
1D8A
  3
INDEXCTL
350
1D88
  3
SORTENTS
350
14C3
  3
XCLIPFRAME
350
1DE2
  0
DICTIONARY
  5
1B02
102
{ACAD_REACTORS
330
C
102
}
330
C
100
AcDbDictionary
281
     1
  3
AcmStdDictionary
350
1B0D
  0
DICTIONARY
  5
1AB5
102
{ACAD_REACTORS
330
C
102
}
330
C
100
AcDbDictionary
281
     1
  0
DICTIONARY
  5
1B46
102
{ACAD_REACTORS
330
C
102
}
330
C
100
AcDbDictionary
281
     1
  0
XRECORD
  5
1DE5
102
{ACAD_REACTORS
330
C
102
}
330
C
100
AcDbXrecord
280
     1
  1
DWGPROPS COOKIE
  2

  3

  4

  6

  7

  8
RD3
  9

300
=
301
=
302
=
303
=
304
=
305
=
306
=
307
=
308
=
309
=
 40
0.1732993287037037
 41
2453683.383260186
 42
2459373.426586817
  1

 90
        0
  0
XRECORD
  5
1B4E
102
{ACAD_REACTORS
330
1B4D
102
}
330
1B4D
100
AcDbXrecord
280
     1
290
     1
  0
XRECORD
  5
1B50
102
{ACAD_REACTORS
330
1B4F
102
}
330
1B4F
100
AcDbXrecord
280
     1
290
     1
  0
XRECORD
  5
1B52
102
{ACAD_REACTORS
330
1B51
102
}
330
1B51
100
AcDbXrecord
280
     1
290
     1
  0
XRECORD
  5
1B56
102
{ACAD_REACTORS
330
1B55
102
}
330
1B55
100
AcDbXrecord
280
     1
290
     1
  0
XRECORD
  5
1B58
102
{ACAD_REACTORS
330
1B57
102
}
330
1B57
100
AcDbXrecord
280
     1
290
     1
  0
XRECORD
  5
1B5A
102
{ACAD_REACTORS
330
1B59
102
}
330
1B59
100
AcDbXrecord
280
     1
290
     1
  0
XRECORD
  5
1B5C
102
{ACAD_REACTORS
330
1B5B
102
}
330
1B5B
100
AcDbXrecord
280
     1
290
     1
  0
XRECORD
  5
1E28
102
{ACAD_REACTORS
330
1E27
102
}
330
1E27
100
AcDbXrecord
280
     1
 40
5037.0
  1
\A1;\U+220540
  0
XRECORD
  5
1DEC
102
{ACAD_REACTORS
330
1DEB
102
}
330
1DEB
100
AcDbXrecord
280
     1
 40
70077.0
  1
\Ftxt.shx,bigfont.shx|c128;製 \U+56F3
  0
XRECORD
  5
1DEE
102
{ACAD_REACTORS
330
1DED
102
}
330
1DED
100
AcDbXrecord
280
     1
 40
69783.0
  1
\Ftxt.shx,bigfont.shx|c128;日 付
  0
XRECORD
  5
1DF0
102
{ACAD_REACTORS
330
1DEF
102
}
330
1DEF
100
AcDbXrecord
280
     1
 40
188571.0
  1
\Ftxt.shx,bigfont.shx|c128;日機株式\U+4F1A社
  0
XRECORD
  5
1DF2
102
{ACAD_REACTORS
330
1DF1
102
}
330
1DF1
100
AcDbXrecord
280
     1
 40
70506.0
  1
\Ftxt.shx,bigfont.shx|c128;\U+691C \U+56F3
  0
XRECORD
  5
1DF4
102
{ACAD_REACTORS
330
1DF3
102
}
330
1DF3
100
AcDbXrecord
280
     1
 40
69669.0
  1
\Ftxt.shx,bigfont.shx|c128;承 認
  0
XRECORD
  5
1DF6
102
{ACAD_REACTORS
330
1DF5
102
}
330
1DF5
100
AcDbXrecord
280
     1
 40
70369.0
  1
\Ftxt.shx,bigfont.shx|c128;尺 度
  0
XRECORD
  5
1DF8
102
{ACAD_REACTORS
330
1DF7
102
}
330
1DF7
100
AcDbXrecord
280
     1
 40
1129956.0
  1
\Ftxt.shx,bigfont.shx|c128;　\U+30DE\U+30B0\U+30CD\U+30C3\U+30C8\U+30B9\U+30BF\U+30F3\U+30C9式\P    \U+30AF\U+30FC\U+30E9\U+30F3\U+30C8\U+30CE\U+30BA\U+30EB　
  0
XRECORD
  5
1DFA
102
{ACAD_REACTORS
330
1DF9
102
}
330
1DF9
100
AcDbXrecord
280
     1
 40
134077.0
  1
\Ftxt.shx,bigfont.shx|c128;\U+56F3  面  番  \U+53F7
  0
XRECORD
  5
1DFC
102
{ACAD_REACTORS
330
1DFB
102
}
330
1DFB
100
AcDbXrecord
280
     1
 40
71889.0
  1
\Ftxt.shx,bigfont.shx|c128;品  名
  0
XRECORD
  5
1DFE
102
{ACAD_REACTORS
330
1DFD
102
}
330
1DFD
100
AcDbXrecord
280
     1
 40
68955.0
  1
\Ftxt.shx,bigfont.shx|c128;\U+5909更
  0
XRECORD
  5
1E00
102
{ACAD_REACTORS
330
1DFF
102
}
330
1DFF
100
AcDbXrecord
280
     1
 40
33164.0
  1
{\Ftxt,bigfont|c128;１}
  0
XRECORD
  5
1E02
102
{ACAD_REACTORS
330
1E01
102
}
330
1E01
100
AcDbXrecord
280
     1
 40
72032.0
  1
\Ftxt.shx,bigfont.shx|c128;型  番
  0
XRECORD
  5
1E04
102
{ACAD_REACTORS
330
1E03
102
}
330
1E03
100
AcDbXrecord
280
     1
 40
74001.0
  1
\Ftxt.shx,bigfont.shx|c128;照   \U+53F7
  0
XRECORD
  5
1E06
102
{ACAD_REACTORS
330
1E05
102
}
330
1E05
100
AcDbXrecord
280
     1
 40
179576.0
  1
\Ftxt.shx,bigfont.shx|c128;型　　　　番
  0
XRECORD
  5
1E08
102
{ACAD_REACTORS
330
1E07
102
}
330
1E07
100
AcDbXrecord
280
     1
 40
184417.0
  1
\Ftxt.shx,bigfont.shx|c128;\U+30BF\U+30B1\U+30CE\U+30B3接手
  0
XRECORD
  5
1E0A
102
{ACAD_REACTORS
330
1E09
102
}
330
1E09
100
AcDbXrecord
280
     1
 40
242765.0
  1
\Ftxt.shx,bigfont.shx|c128;\U+30D5 \U+30EC \U+30A2 \U+30CE \U+30BA \U+30EB　  
  0
XRECORD
  5
1E0C
102
{ACAD_REACTORS
330
1E0B
102
}
330
1E0B
100
AcDbXrecord
280
     1
 40
125972.0
  1
\Ftxt.shx,bigfont.shx|c128;\U+30DB 一 \U+30B9　  
  0
XRECORD
  5
1E0E
102
{ACAD_REACTORS
330
1E0D
102
}
330
1E0D
100
AcDbXrecord
280
     1
 40
111356.0
  1
\Ftxt.shx,bigfont.shx|c128;品　          名
  0
XRECORD
  5
1E10
102
{ACAD_REACTORS
330
1E0F
102
}
330
1E0F
100
AcDbXrecord
280
     1
 40
255452.0
  1
\Ftxt.shx,bigfont.shx|c128;\U+30B3 \U+30CD \U+30AF \U+30BF　\fＭＳ 明朝|b0|i0|c128|p17; 
  0
XRECORD
  5
1E12
102
{ACAD_REACTORS
330
1E11
102
}
330
1E11
100
AcDbXrecord
280
     1
 40
306647.0
  1
\Ftxt.shx,bigfont.shx|c128;\U+30DE\U+30B0\U+30CD\U+30C3\U+30C8\U+3079\U+30FC\U+30B9　
  0
XRECORD
  5
1E14
102
{ACAD_REACTORS
330
1E13
102
}
330
1E13
100
AcDbXrecord
280
     1
 40
116039.0
  1
\Ftxt.shx,bigfont.shx|c128;\U+30ED　　\U+5F84
  0
XRECORD
  5
1E16
102
{ACAD_REACTORS
330
1E15
102
}
330
1E15
100
AcDbXrecord
280
     1
 40
73369.0
  1
\Ftxt.shx,bigfont.shx|c128;\U+6570   量
  0
XRECORD
  5
1E18
102
{ACAD_REACTORS
330
1E17
102
}
330
1E17
100
AcDbXrecord
280
     1
 40
87352.0
  1
\Ftxt.shx,bigfont.shx|c128;(1/8Px5/16H-34L）
  0
XRECORD
  5
1E1A
102
{ACAD_REACTORS
330
1E19
102
}
330
1E19
100
AcDbXrecord
280
     1
 40
88942.0
  1
\Ftxt.shx,bigfont.shx|c128;備           考
  0
XRECORD
  5
1E1C
102
{ACAD_REACTORS
330
1E1B
102
}
330
1E1B
100
AcDbXrecord
280
     1
 40
115310.0
  1
\Ftxt.shx,bigfont.shx|c128;\U+9EC4　　色
  0
XRECORD
  5
1E1E
102
{ACAD_REACTORS
330
1E1D
102
}
330
1E1D
100
AcDbXrecord
280
     1
 40
109109.0
  1
\Ftxt.shx,bigfont.shx|c128;PT 1/4　桔色
  0
XRECORD
  5
1E22
102
{ACAD_REACTORS
330
1E21
102
}
330
1E21
100
AcDbXrecord
280
     1
 40
180709.0
  1
\Ftxt.shx,bigfont.shx|c128;取　付　座　
  0
XRECORD
  5
1E24
102
{ACAD_REACTORS
330
1E23
102
}
330
1E23
100
AcDbXrecord
280
     1
 40
91612.0
  1
\Ftxt.shx,bigfont.shx|c128;林\U+5F66旭
  0
XRECORD
  5
1E26
102
{ACAD_REACTORS
330
1E25
102
}
330
1E25
100
AcDbXrecord
280
     1
 40
267827.0
  1
\Ftxt.shx,bigfont.shx|c128;2005年11月7日照\U+53F76\U+5909更
  0
XRECORD
  5
1E2A
102
{ACAD_REACTORS
330
1E29
102
}
330
1E29
100
AcDbXrecord
280
     1
 40
116093.0
  1
\Ftxt.shx,bigfont.shx|c128;紺　　色
  0
XRECORD
  5
1E2C
102
{ACAD_REACTORS
330
1E2B
102
}
330
1E2B
100
AcDbXrecord
280
     1
 40
115513.0
  1
\Ftxt.shx,bigfont.shx|c128;桔　　色
  0
XRECORD
  5
1E2E
102
{ACAD_REACTORS
330
1E2D
102
}
330
1E2D
100
AcDbXrecord
280
     1
 40
33164.0
  1
{\Ftxt,bigfont|c128;１}
  0
XRECORD
  5
1E35
102
{ACAD_REACTORS
330
1E34
102
}
330
1E34
100
AcDbXrecord
280
     1
 40
175693.0
  1
{\Ftxt,bigfont|c128;(1/8Px5/16H-２８．５L）}
  0
XRECORD
  5
1E37
102
{ACAD_REACTORS
330
1E36
102
}
330
1E36
100
AcDbXrecord
280
     1
 40
33164.0
  1
{\Ftxt,bigfont|c128;１}
  0
XRECORD
  5
1E39
102
{ACAD_REACTORS
330
1E38
102
}
330
1E38
100
AcDbXrecord
280
     1
 40
59220.0
  1
{\Ftxt,bigfont|c128;小\~柳}
  0
XRECORD
  5
1E3B
102
{ACAD_REACTORS
330
1E3A
102
}
330
1E3A
100
AcDbXrecord
280
     1
 40
33164.0
  1
{\Ftxt,bigfont|c128;１}
  0
XRECORD
  5
1E20
102
{ACAD_REACTORS
330
1E1F
102
}
330
1E1F
100
AcDbXrecord
280
     1
102
SHADEPLOT
 70
     0
  0
XRECORD
  5
1DE7
102
{ACAD_REACTORS
330
1DE6
102
}
330
1DE6
100
AcDbXrecord
280
     1
 70
     1
  0
XRECORD
  5
1DE9
102
{ACAD_REACTORS
330
1DE6
102
}
330
1DE6
100
AcDbXrecord
280
     1
340
12
  0
XRECORD
  5
1DEA
102
{ACAD_REACTORS
330
1DE6
102
}
330
1DE6
100
AcDbXrecord
280
     1
340
12
  0
XRECORD
  5
1DE8
102
{ACAD_REACTORS
330
1DE6
102
}
330
1DE6
100
AcDbXrecord
280
     1
340
12
  0
LAYOUT
  5
19D0
102
{ACAD_XDICTIONARY
360
1E30
102
}
102
{ACAD_REACTORS
330
19CE
102
}
330
19CE
100
AcDbPlotSettings
  1

  2
iR2200i
  4
A4
  6

 40
5.873749732971191
 41
5.873747825622558
 42
5.873748779296875
 43
5.873748779296875
 44
209.9733276367187
 45
296.9259948730469
 46
0.0
 47
0.0
 48
0.0
 49
0.0
140
0.0
141
0.0
142
1.0
143
3.350114208266698
 70
 11952
 72
     1
 73
     1
 74
     0
  7
LIN.ctb
 75
     0
147
0.2984972863111392
148
-1060.4854890616
149
-524.2833973660615
100
AcDbLayout
  1
Model
 70
     1
 71
     0
 10
0.0
 20
0.0
 11
12.0
 21
9.0
 12
0.0
 22
0.0
 32
0.0
 14
0.0
 24
0.0
 34
0.0
 15
0.0
 25
0.0
 35
0.0
146
0.0
 13
0.0
 23
0.0
 33
0.0
 16
1.0
 26
0.0
 36
0.0
 17
0.0
 27
1.0
 37
0.0
 76
     0
330
18
331
1A5E
1001
ACAD_PSEXT
1000
iR2200i
1000
Canon iR2200-3300 LIPS
1000
IP_192.168.1.210
1000

1070
     0
  0
LAYOUT
  5
19D1
102
{ACAD_XDICTIONARY
360
1E32
102
}
102
{ACAD_REACTORS
330
19CE
102
}
330
19CE
100
AcDbPlotSettings
  1

  2
iR2200i
  4

  6

 40
0.0
 41
0.0
 42
0.0
 43
0.0
 44
0.0
 45
0.0
 46
0.0
 47
0.0
 48
0.0
 49
0.0
140
0.0
141
0.0
142
1.0
143
1.0
 70
   688
 72
     0
 73
     0
 74
     5
  7
LIN.ctb
 75
    16
147
1.0
148
0.0
149
0.0
100
AcDbLayout
  1
\U+30EC\U+30A4\U+30A2\U+30A6\U+30C81
 70
     1
 71
     1
 10
0.0
 20
0.0
 11
420.0
 21
297.0
 12
0.0
 22
0.0
 32
0.0
 14
28.51784982681273
 24
19.82258291244505
 34
0.0
 15
256.6606484413147
 25
178.4032462120056
 35
0.0
146
0.0
 13
0.0
 23
0.0
 33
0.0
 16
1.0
 26
0.0
 36
0.0
 17
0.0
 27
1.0
 37
0.0
 76
     0
330
15
331
18BE
1001
ACADSTRINGINFO
1000
MIFCodePage
1070
     1
  0
MATERIAL
  5
1A68
102
{ACAD_XDICTIONARY
360
1A69
102
}
102
{ACAD_REACTORS
330
19CA
102
}
330
19CA
100
AcDbMaterial
  1
ByBlock
 72
     0
 43
0.0208333333333333
 43
0.0
 43
0.0
 43
0.0
 43
0.0
 43
0.0208333333333333
 43
0.0
 43
0.0
 43
0.0
 43
0.0
 43
1.0
 43
0.0
 43
0.0
 43
0.0
 43
0.0
 43
1.0
 77
     0
 47
0.0208333333333333
 47
0.0
 47
0.0
 47
0.0
 47
0.0
 47
0.0208333333333333
 47
0.0
 47
0.0
 47
0.0
 47
0.0
 47
1.0
 47
0.0
 47
0.0
 47
0.0
 47
0.0
 47
1.0
171
     0
 49
0.0208333333333333
 49
0.0
 49
0.0
 49
0.0
 49
0.0
 49
0.0208333333333333
 49
0.0
 49
0.0
 49
0.0
 49
0.0
 49
1.0
 49
0.0
 49
0.0
 49
0.0
 49
0.0
 49
1.0
175
     0
142
0.0208333333333333
142
0.0
142
0.0
142
0.0
142
0.0
142
0.0208333333333333
142
0.0
142
0.0
142
0.0
142
0.0
142
1.0
142
0.0
142
0.0
142
0.0
142
0.0
142
1.0
179
     0
144
0.0208333333333333
144
0.0
144
0.0
144
0.0
144
0.0
144
0.0208333333333333
144
0.0
144
0.0
144
0.0
144
0.0
144
1.0
144
0.0
144
0.0
144
0.0
144
0.0
144
1.0
147
0.0208333333333333
147
0.0
147
0.0
147
0.0
147
0.0
147
0.0208333333333333
147
0.0
147
0.0
147
0.0
147
0.0
147
1.0
147
0.0
147
0.0
147
0.0
147
0.0
147
1.0
  0
MATERIAL
  5
1A60
102
{ACAD_XDICTIONARY
360
1A61
102
}
102
{ACAD_REACTORS
330
19CA
102
}
330
19CA
100
AcDbMaterial
  1
ByLayer
 72
     0
 43
0.0208333333333333
 43
0.0
 43
0.0
 43
0.0
 43
0.0
 43
0.0208333333333333
 43
0.0
 43
0.0
 43
0.0
 43
0.0
 43
1.0
 43
0.0
 43
0.0
 43
0.0
 43
0.0
 43
1.0
 77
     0
 47
0.0208333333333333
 47
0.0
 47
0.0
 47
0.0
 47
0.0
 47
0.0208333333333333
 47
0.0
 47
0.0
 47
0.0
 47
0.0
 47
1.0
 47
0.0
 47
0.0
 47
0.0
 47
0.0
 47
1.0
171
     0
 49
0.0208333333333333
 49
0.0
 49
0.0
 49
0.0
 49
0.0
 49
0.0208333333333333
 49
0.0
 49
0.0
 49
0.0
 49
0.0
 49
1.0
 49
0.0
 49
0.0
 49
0.0
 49
0.0
 49
1.0
175
     0
142
0.0208333333333333
142
0.0
142
0.0
142
0.0
142
0.0
142
0.0208333333333333
142
0.0
142
0.0
142
0.0
142
0.0
142
1.0
142
0.0
142
0.0
142
0.0
142
0.0
142
1.0
179
     0
144
0.0208333333333333
144
0.0
144
0.0
144
0.0
144
0.0
144
0.0208333333333333
144
0.0
144
0.0
144
0.0
144
0.0
144
1.0
144
0.0
144
0.0
144
0.0
144
0.0
144
1.0
147
0.0208333333333333
147
0.0
147
0.0
147
0.0
147
0.0
147
0.0208333333333333
147
0.0
147
0.0
147
0.0
147
0.0
147
1.0
147
0.0
147
0.0
147
0.0
147
0.0
147
1.0
  0
MATERIAL
  5
1A70
102
{ACAD_XDICTIONARY
360
1A71
102
}
102
{ACAD_REACTORS
330
19CA
102
}
330
19CA
100
AcDbMaterial
  1
Global
 72
     0
 43
0.0208333333333333
 43
0.0
 43
0.0
 43
0.0
 43
0.0
 43
0.0208333333333333
 43
0.0
 43
0.0
 43
0.0
 43
0.0
 43
1.0
 43
0.0
 43
0.0
 43
0.0
 43
0.0
 43
1.0
 77
     0
 47
0.0208333333333333
 47
0.0
 47
0.0
 47
0.0
 47
0.0
 47
0.0208333333333333
 47
0.0
 47
0.0
 47
0.0
 47
0.0
 47
1.0
 47
0.0
 47
0.0
 47
0.0
 47
0.0
 47
1.0
171
     0
 49
0.0208333333333333
 49
0.0
 49
0.0
 49
0.0
 49
0.0
 49
0.0208333333333333
 49
0.0
 49
0.0
 49
0.0
 49
0.0
 49
1.0
 49
0.0
 49
0.0
 49
0.0
 49
0.0
 49
1.0
175
     0
142
0.0208333333333333
142
0.0
142
0.0
142
0.0
142
0.0
142
0.0208333333333333
142
0.0
142
0.0
142
0.0
142
0.0
142
1.0
142
0.0
142
0.0
142
0.0
142
0.0
142
1.0
179
     0
144
0.0208333333333333
144
0.0
144
0.0
144
0.0
144
0.0
144
0.0208333333333333
144
0.0
144
0.0
144
0.0
144
0.0
144
1.0
144
0.0
144
0.0
144
0.0
144
0.0
144
1.0
147
0.0208333333333333
147
0.0
147
0.0
147
0.0
147
0.0
147
0.0208333333333333
147
0.0
147
0.0
147
0.0
147
0.0
147
1.0
147
0.0
147
0.0
147
0.0
147
0.0
147
1.0
  0
MLEADERSTYLE
  5
1AA4
102
{ACAD_REACTORS
330
1AA3
102
}
330
1AA3
100
AcDbMLeaderStyle
170
     2
171
     1
172
     0
 90
        2
 40
0.0
 41
0.0
173
     1
 91
-1056964608
340
12
 92
       -2
290
     1
 42
2.0
291
     1
 43
0.36
  3
Standard
 44
4.0
300

342
F
174
     1
178
     6
175
     1
176
     0
 93
-1056964608
 45
4.0
292
     0
297
     0
 46
4.0
 94
-1056964608
 47
1.0
 49
1.0
140
1.0
293
     1
141
0.0
294
     1
177
     0
142
1.0
295
     0
296
     0
143
0.125
1001
ACAD_MLEADERVER
1070
     2
  0
MLINESTYLE
  5
1C
102
{ACAD_REACTORS
330
1B
102
}
330
1B
100
AcDbMlineStyle
  2
STANDARD
 70
     0
  3

 62
   256
 51
90.0
 52
90.0
 71
     2
 49
0.5
 62
   256
  6
BYLAYER
 49
-0.5
 62
   256
  6
BYLAYER
  0
ACDBPLACEHOLDER
  5
19C9
102
{ACAD_REACTORS
330
19C8
102
}
330
19C8
  0
SCALE
  5
1A92
102
{ACAD_REACTORS
330
1A91
102
}
330
1A91
100
AcDbScale
 70
     0
300
1:1
140
1.0
141
1.0
290
     1
  0
SCALE
  5
1A93
102
{ACAD_REACTORS
330
1A91
102
}
330
1A91
100
AcDbScale
 70
     0
300
1:2
140
1.0
141
2.0
290
     0
  0
SCALE
  5
1A94
102
{ACAD_REACTORS
330
1A91
102
}
330
1A91
100
AcDbScale
 70
     0
300
1:4
140
1.0
141
4.0
290
     0
  0
SCALE
  5
1A95
102
{ACAD_REACTORS
330
1A91
102
}
330
1A91
100
AcDbScale
 70
     0
300
1:5
140
1.0
141
5.0
290
     0
  0
SCALE
  5
1A96
102
{ACAD_REACTORS
330
1A91
102
}
330
1A91
100
AcDbScale
 70
     0
300
1:8
140
1.0
141
8.0
290
     0
  0
SCALE
  5
1A97
102
{ACAD_REACTORS
330
1A91
102
}
330
1A91
100
AcDbScale
 70
     0
300
1:10
140
1.0
141
10.0
290
     0
  0
SCALE
  5
1A98
102
{ACAD_REACTORS
330
1A91
102
}
330
1A91
100
AcDbScale
 70
     0
300
1:16
140
1.0
141
16.0
290
     0
  0
SCALE
  5
1A99
102
{ACAD_REACTORS
330
1A91
102
}
330
1A91
100
AcDbScale
 70
     0
300
1:20
140
1.0
141
20.0
290
     0
  0
SCALE
  5
1A9A
102
{ACAD_REACTORS
330
1A91
102
}
330
1A91
100
AcDbScale
 70
     0
300
1:30
140
1.0
141
30.0
290
     0
  0
SCALE
  5
1A9B
102
{ACAD_REACTORS
330
1A91
102
}
330
1A91
100
AcDbScale
 70
     0
300
1:40
140
1.0
141
40.0
290
     0
  0
SCALE
  5
1A9C
102
{ACAD_REACTORS
330
1A91
102
}
330
1A91
100
AcDbScale
 70
     0
300
1:50
140
1.0
141
50.0
290
     0
  0
SCALE
  5
1A9D
102
{ACAD_REACTORS
330
1A91
102
}
330
1A91
100
AcDbScale
 70
     0
300
1:100
140
1.0
141
100.0
290
     0
  0
SCALE
  5
1A9E
102
{ACAD_REACTORS
330
1A91
102
}
330
1A91
100
AcDbScale
 70
     0
300
2:1
140
2.0
141
1.0
290
     0
  0
SCALE
  5
1A9F
102
{ACAD_REACTORS
330
1A91
102
}
330
1A91
100
AcDbScale
 70
     0
300
4:1
140
4.0
141
1.0
290
     0
  0
SCALE
  5
1AA0
102
{ACAD_REACTORS
330
1A91
102
}
330
1A91
100
AcDbScale
 70
     0
300
8:1
140
8.0
141
1.0
290
     0
  0
SCALE
  5
1AA1
102
{ACAD_REACTORS
330
1A91
102
}
330
1A91
100
AcDbScale
 70
     0
300
10:1
140
10.0
141
1.0
290
     0
  0
SCALE
  5
1AA2
102
{ACAD_REACTORS
330
1A91
102
}
330
1A91
100
AcDbScale
 70
     0
300
100:1
140
100.0
141
1.0
290
     0
  0
TABLESTYLE
  5
19CD
102
{ACAD_XDICTIONARY
360
1B5D
102
}
102
{ACAD_REACTORS
330
19CC
102
}
330
19CC
100
AcDbTableStyle
  3
Standard
 70
     0
 71
     0
 40
1.5
 41
1.5
280
     0
281
     0
  7
STANDARD
140
4.5
170
     2
 62
     0
 63
     7
283
     0
274
    -2
284
     1
 64
     0
275
    -2
285
     1
 65
     0
276
    -2
286
     1
 66
     0
277
    -2
287
     1
 67
     0
278
    -2
288
     1
 68
     0
279
    -2
289
     1
 69
     0
  7
STANDARD
140
6.0
170
     5
 62
     0
 63
     7
283
     0
274
    -2
284
     1
 64
     0
275
    -2
285
     1
 65
     0
276
    -2
286
     1
 66
     0
277
    -2
287
     1
 67
     0
278
    -2
288
     1
 68
     0
279
    -2
289
     1
 69
     0
  7
STANDARD
140
4.5
170
     5
 62
     0
 63
     7
283
     0
274
    -2
284
     1
 64
     0
275
    -2
285
     1
 65
     0
276
    -2
286
     1
 66
     0
277
    -2
287
     1
 67
     0
278
    -2
288
     1
 68
     0
279
    -2
289
     1
 69
     0
  0
VISUALSTYLE
  5
1A7E
102
{ACAD_XDICTIONARY
360
1E49
102
}
102
{ACAD_REACTORS
330
1A78
102
}
330
1A78
100
AcDbVisualStyle
  2
2dWireframe
 70
     4
 71
     0
 72
     2
 73
     0
 90
        0
 40
-0.6
 41
-30.0
 62
     5
 63
     7
 74
     1
 91
        4
 64
     7
 65
   257
 75
     1
175
     1
 42
1.0
 92
        0
 66
   257
 43
1.0
 76
     1
 77
     6
 78
     2
 67
     7
 79
     5
170
     0
171
     0
290
     0
174
     0
 93
        1
 44
0.0
173
     0
291
     0
 45
0.0
1001
ACAD
1000
AcDbSavedByObjectVersion
1070
     0
  0
VISUALSTYLE
  5
1A7D
102
{ACAD_XDICTIONARY
360
1E47
102
}
102
{ACAD_REACTORS
330
1A78
102
}
330
1A78
100
AcDbVisualStyle
  2
Basic
 70
     7
 71
     1
 72
     0
 73
     1
 90
        0
 40
-0.6
 41
-30.0
 62
     5
 63
     7
 74
     0
 91
        4
 64
     7
 65
   257
 75
     1
175
     1
 42
1.0
 92
        8
 66
     7
 43
1.0
 76
     1
 77
     6
 78
     2
 67
     7
 79
     5
170
     0
171
     0
290
     0
174
     0
 93
        1
 44
0.0
173
     0
291
     1
 45
0.0
1001
ACAD
1000
AcDbSavedByObjectVersion
1070
     0
  0
VISUALSTYLE
  5
1A84
102
{ACAD_XDICTIONARY
360
1E55
102
}
102
{ACAD_REACTORS
330
1A78
102
}
330
1A78
100
AcDbVisualStyle
  2
Brighten
 70
    12
 71
     2
 72
     2
 73
     0
 90
        0
 40
-0.6
 41
-30.0
 62
     5
 63
     7
 74
     1
 91
        4
 64
     7
 65
   257
 75
     1
175
     1
 42
1.0
 92
        8
 66
     7
 43
1.0
 76
     1
 77
     6
 78
     2
 67
     7
 79
     5
170
     0
171
     0
290
     0
174
     0
 93
        1
 44
50.0
173
     0
291
     1
 45
0.0
1001
ACAD
1000
AcDbSavedByObjectVersion
1070
     0
  0
VISUALSTYLE
  5
1A88
102
{ACAD_XDICTIONARY
360
1E5D
102
}
102
{ACAD_REACTORS
330
1A78
102
}
330
1A78
100
AcDbVisualStyle
  2
ColorChange
 70
    16
 71
     2
 72
     2
 73
     3
 90
        0
 40
-0.6
 41
-30.0
 62
     5
 63
     8
 74
     1
 91
        4
 64
     7
 65
   257
 75
     1
175
     1
 42
1.0
 92
        8
 66
     8
 43
1.0
 76
     1
 77
     6
 78
     2
 67
     7
 79
     5
170
     0
171
     0
290
     0
174
     0
 93
        1
 44
0.0
173
     0
291
     1
 45
0.0
1001
ACAD
1000
AcDbSavedByObjectVersion
1070
     0
  0
VISUALSTYLE
  5
1A81
102
{ACAD_XDICTIONARY
360
1E4F
102
}
102
{ACAD_REACTORS
330
1A78
102
}
330
1A78
100
AcDbVisualStyle
  2
Conceptual
 70
     9
 71
     3
 72
     2
 73
     0
 90
        0
 40
-0.6
 41
-30.0
 62
     5
 63
     7
 74
     2
 91
        2
 64
     7
 65
   257
 75
     1
175
     1
 42
179.0
 92
        8
 66
     7
 43
1.0
 76
     1
 77
     6
 78
     2
 67
     7
 79
     3
170
     0
171
     0
290
     0
174
     0
 93
        1
 44
0.0
173
     0
291
     0
 45
0.0
1001
ACAD
1000
AcDbSavedByObjectVersion
1070
     0
  0
VISUALSTYLE
  5
1A83
102
{ACAD_XDICTIONARY
360
1E53
102
}
102
{ACAD_REACTORS
330
1A78
102
}
330
1A78
100
AcDbVisualStyle
  2
Dim
 70
    11
 71
     2
 72
     2
 73
     0
 90
        0
 40
-0.6
 41
-30.0
 62
     5
 63
     7
 74
     1
 91
        4
 64
     7
 65
   257
 75
     1
175
     1
 42
1.0
 92
        8
 66
     7
 43
1.0
 76
     1
 77
     6
 78
     2
 67
     7
 79
     5
170
     0
171
     0
290
     0
174
     0
 93
        1
 44
-50.0
173
     0
291
     1
 45
0.0
1001
ACAD
1000
AcDbSavedByObjectVersion
1070
     0
  0
VISUALSTYLE
  5
1A90
102
{ACAD_XDICTIONARY
360
1E6D
102
}
102
{ACAD_REACTORS
330
1A78
102
}
330
1A78
100
AcDbVisualStyle
  2
EdgeColorOff
 70
    22
 71
     2
 72
     2
 73
     0
 90
        0
 40
-0.6
 41
-30.0
 62
     5
 63
     7
 74
     1
 91
        4
 64
     7
 65
   257
 75
     1
175
     1
 42
1.0
 92
        8
 66
     7
 43
1.0
 76
     1
 77
     6
 78
     2
 67
     7
 79
     5
170
     0
171
     0
290
     0
174
     0
 93
        1
 44
0.0
173
     0
291
     1
 45
0.0
1001
ACAD
1000
AcDbSavedByObjectVersion
1070
     0
  0
VISUALSTYLE
  5
1A87
102
{ACAD_XDICTIONARY
360
1E5B
102
}
102
{ACAD_REACTORS
330
1A78
102
}
330
1A78
100
AcDbVisualStyle
  2
Facepattern
 70
    15
 71
     2
 72
     2
 73
     0
 90
        0
 40
-0.6
 41
-30.0
 62
     5
 63
     7
 74
     1
 91
        4
 64
     7
 65
   257
 75
     1
175
     1
 42
1.0
 92
        8
 66
     7
 43
1.0
 76
     1
 77
     6
 78
     2
 67
     7
 79
     5
170
     0
171
     0
290
     0
174
     0
 93
        1
 44
0.0
173
     0
291
     1
 45
0.0
1001
ACAD
1000
AcDbSavedByObjectVersion
1070
     0
  0
VISUALSTYLE
  5
1A79
102
{ACAD_XDICTIONARY
360
1E3F
102
}
102
{ACAD_REACTORS
330
1A78
102
}
330
1A78
100
AcDbVisualStyle
  2
Flat
 70
     0
 71
     2
 72
     1
 73
     1
 90
        2
 40
-0.6
 41
30.0
 62
     5
 63
     7
 74
     0
 91
        0
 64
     7
 65
   257
 75
     1
175
     1
 42
1.0
 92
        8
 66
     7
 43
1.0
 76
     1
 77
     6
 78
     2
 67
     7
 79
     5
170
     0
171
     0
290
     0
174
     0
 93
       13
 44
0.0
173
     0
291
     1
 45
0.0
1001
ACAD
1000
AcDbSavedByObjectVersion
1070
     0
  0
VISUALSTYLE
  5
1A7A
102
{ACAD_XDICTIONARY
360
1E41
102
}
102
{ACAD_REACTORS
330
1A78
102
}
330
1A78
100
AcDbVisualStyle
  2
FlatWithEdges
 70
     1
 71
     2
 72
     1
 73
     1
 90
        2
 40
-0.6
 41
30.0
 62
     5
 63
     7
 74
     1
 91
        0
 64
     7
 65
   257
 75
     1
175
     1
 42
1.0
 92
        0
 66
   257
 43
1.0
 76
     1
 77
     6
 78
     2
 67
     7
 79
     5
170
     0
171
     0
290
     0
174
     0
 93
       13
 44
0.0
173
     0
291
     1
 45
0.0
1001
ACAD
1000
AcDbSavedByObjectVersion
1070
     0
  0
VISUALSTYLE
  5
1A7B
102
{ACAD_XDICTIONARY
360
1E43
102
}
102
{ACAD_REACTORS
330
1A78
102
}
330
1A78
100
AcDbVisualStyle
  2
Gouraud
 70
     2
 71
     2
 72
     2
 73
     1
 90
        2
 40
-0.6
 41
30.0
 62
     5
 63
     7
 74
     0
 91
        0
 64
     7
 65
   257
 75
     1
175
     1
 42
1.0
 92
        0
 66
     7
 43
1.0
 76
     1
 77
     6
 78
     2
 67
     7
 79
     5
170
     0
171
     0
290
     0
174
     0
 93
       13
 44
0.0
173
     0
291
     1
 45
0.0
1001
ACAD
1000
AcDbSavedByObjectVersion
1070
     0
  0
VISUALSTYLE
  5
1A7C
102
{ACAD_XDICTIONARY
360
1E45
102
}
102
{ACAD_REACTORS
330
1A78
102
}
330
1A78
100
AcDbVisualStyle
  2
GouraudWithEdges
 70
     3
 71
     2
 72
     2
 73
     1
 90
        2
 40
-0.6
 41
30.0
 62
     5
 63
     7
 74
     1
 91
        0
 64
     7
 65
   257
 75
     1
175
     1
 42
1.0
 92
        0
 66
   257
 43
1.0
 76
     1
 77
     6
 78
     2
 67
     7
 79
     5
170
     0
171
     0
290
     0
174
     0
 93
       13
 44
0.0
173
     0
291
     1
 45
0.0
1001
ACAD
1000
AcDbSavedByObjectVersion
1070
     0
  0
VISUALSTYLE
  5
1A80
102
{ACAD_XDICTIONARY
360
1E4D
102
}
102
{ACAD_REACTORS
330
1A78
102
}
330
1A78
100
AcDbVisualStyle
  2
Hidden
 70
     6
 71
     1
 72
     2
 73
     2
 90
        0
 40
-0.6
 41
-30.0
 62
     5
 63
     7
 74
     2
 91
        2
 64
     7
 65
   257
 75
     2
175
     1
 42
40.0
 92
        0
 66
   257
 43
1.0
 76
     1
 77
     6
 78
     2
 67
     7
 79
     3
170
     0
171
     0
290
     0
174
     0
 93
        1
 44
0.0
173
     0
291
     0
 45
0.0
1001
ACAD
1000
AcDbSavedByObjectVersion
1070
     0
  0
VISUALSTYLE
  5
1A8E
102
{ACAD_XDICTIONARY
360
1E69
102
}
102
{ACAD_REACTORS
330
1A78
102
}
330
1A78
100
AcDbVisualStyle
  2
JitterOff
 70
    20
 71
     2
 72
     2
 73
     0
 90
        0
 40
-0.6
 41
-30.0
 62
     5
 63
     7
 74
     1
 91
        4
 64
     7
 65
   257
 75
     1
175
     1
 42
1.0
 92
       10
 66
     7
 43
1.0
 76
     1
 77
     6
 78
     2
 67
     7
 79
     5
170
     0
171
     0
290
     0
174
     0
 93
        1
 44
0.0
173
     0
291
     1
 45
0.0
1001
ACAD
1000
AcDbSavedByObjectVersion
1070
     0
  0
VISUALSTYLE
  5
1A86
102
{ACAD_XDICTIONARY
360
1E59
102
}
102
{ACAD_REACTORS
330
1A78
102
}
330
1A78
100
AcDbVisualStyle
  2
Linepattern
 70
    14
 71
     2
 72
     2
 73
     0
 90
        0
 40
-0.6
 41
-30.0
 62
     5
 63
     7
 74
     1
 91
        4
 64
     7
 65
   257
 75
     7
175
     7
 42
1.0
 92
        8
 66
     7
 43
1.0
 76
     1
 77
     6
 78
     2
 67
     7
 79
     5
170
     0
171
     0
290
     0
174
     0
 93
        1
 44
0.0
173
     0
291
     1
 45
0.0
1001
ACAD
1000
AcDbSavedByObjectVersion
1070
     0
  0
VISUALSTYLE
  5
1A8F
102
{ACAD_XDICTIONARY
360
1E6B
102
}
102
{ACAD_REACTORS
330
1A78
102
}
330
1A78
100
AcDbVisualStyle
  2
OverhangOff
 70
    21
 71
     2
 72
     2
 73
     0
 90
        0
 40
-0.6
 41
-30.0
 62
     5
 63
     7
 74
     1
 91
        4
 64
     7
 65
   257
 75
     1
175
     1
 42
1.0
 92
        9
 66
     7
 43
1.0
 76
     1
 77
     6
 78
     2
 67
     7
 79
     5
170
     0
171
     0
290
     0
174
     0
 93
        1
 44
0.0
173
     0
291
     1
 45
0.0
1001
ACAD
1000
AcDbSavedByObjectVersion
1070
     0
  0
VISUALSTYLE
  5
1A82
102
{ACAD_XDICTIONARY
360
1E51
102
}
102
{ACAD_REACTORS
330
1A78
102
}
330
1A78
100
AcDbVisualStyle
  2
Realistic
 70
     8
 71
     2
 72
     2
 73
     0
 90
        2
 40
-0.6
 41
30.0
 62
     5
 63
     7
 74
     0
 91
        0
 64
     7
 65
   257
 75
     1
175
     1
 42
1.0
 92
        8
 66
   257
 43
1.0
 76
     1
 77
     6
 78
     2
 67
     7
 79
     3
170
     0
171
     0
290
     0
174
     0
 93
       13
 44
0.0
173
     0
291
     0
 45
0.0
1001
ACAD
1000
AcDbSavedByObjectVersion
1070
     0
  0
VISUALSTYLE
  5
1A8D
102
{ACAD_XDICTIONARY
360
1E67
102
}
102
{ACAD_REACTORS
330
1A78
102
}
330
1A78
100
AcDbVisualStyle
  2
Shaded
 70
    27
 71
     2
 72
     2
 73
     1
 90
        2
 40
-0.6
 41
30.0
 62
     5
 63
     7
 74
     0
 91
        4
 64
     7
 65
   257
 75
     1
175
     1
 42
1.0
 92
        8
 66
   257
 43
1.0
 76
     1
 77
     6
 78
     2
 67
     8
 79
     3
170
     0
171
     0
290
     0
174
     0
 93
        5
 44
0.0
173
     0
291
     0
 45
0.0
1001
ACAD
1000
AcDbSavedByObjectVersion
1070
     0
  0
VISUALSTYLE
  5
1A8C
102
{ACAD_XDICTIONARY
360
1E65
102
}
102
{ACAD_REACTORS
330
1A78
102
}
330
1A78
100
AcDbVisualStyle
  2
Shaded with edges
 70
    26
 71
     2
 72
     2
 73
     1
 90
        2
 40
-0.6
 41
30.0
 62
     5
 63
     7
 74
     1
 91
       10
 64
     7
 65
   257
 75
     2
175
     1
 42
1.0
 92
        8
 66
   257
 43
1.0
 76
     1
 77
     6
 78
     2
 67
     7
 79
     3
170
     0
171
     0
290
     0
174
     0
 93
        5
 44
0.0
173
     0
291
     0
 45
0.0
1001
ACAD
1000
AcDbSavedByObjectVersion
1070
     0
  0
VISUALSTYLE
  5
1A89
102
{ACAD_XDICTIONARY
360
1E5F
102
}
102
{ACAD_REACTORS
330
1A78
102
}
330
1A78
100
AcDbVisualStyle
  2
Shades of Gray
 70
    23
 71
     2
 72
     2
 73
     3
 90
        0
 40
-0.6
 41
-30.0
 62
     5
 63
     7
 74
     2
 91
        2
 64
     7
 65
     7
 75
     1
175
     1
 42
40.0
 92
        8
 66
     7
 43
1.0
 76
     1
 77
     6
 78
     2
 67
     7
 79
     3
170
     0
171
     0
290
     0
174
     0
 93
        1
 44
0.0
173
     0
291
     0
 45
0.0
1001
ACAD
1000
AcDbSavedByObjectVersion
1070
     0
  0
VISUALSTYLE
  5
1A8A
102
{ACAD_XDICTIONARY
360
1E61
102
}
102
{ACAD_REACTORS
330
1A78
102
}
330
1A78
100
AcDbVisualStyle
  2
Sketchy
 70
    24
 71
     1
 72
     2
 73
     2
 90
        0
 40
-0.6
 41
-30.0
 62
     5
 63
     7
 74
     2
 91
        2
 64
     7
 65
     7
 75
     1
175
     1
 42
40.0
 92
       11
 66
     7
 43
1.0
 76
     1
 77
     6
 78
     2
 67
     7
 79
     6
170
     0
171
     0
290
     0
174
     0
 93
        1
 44
0.0
173
     0
291
     0
 45
0.0
1001
ACAD
1000
AcDbSavedByObjectVersion
1070
     0
  0
VISUALSTYLE
  5
1A85
102
{ACAD_XDICTIONARY
360
1E57
102
}
102
{ACAD_REACTORS
330
1A78
102
}
330
1A78
100
AcDbVisualStyle
  2
Thicken
 70
    13
 71
     2
 72
     2
 73
     0
 90
        0
 40
-0.6
 41
-30.0
 62
     5
 63
     7
 74
     1
 91
        4
 64
     7
 65
   257
 75
     1
175
     1
 42
1.0
 92
       12
 66
     7
 43
1.0
 76
     1
 77
     6
 78
     2
 67
     7
 79
     5
170
     0
171
     0
290
     0
174
     0
 93
        1
 44
0.0
173
     0
291
     1
 45
0.0
1001
ACAD
1000
AcDbSavedByObjectVersion
1070
     0
  0
VISUALSTYLE
  5
1A7F
102
{ACAD_XDICTIONARY
360
1E4B
102
}
102
{ACAD_REACTORS
330
1A78
102
}
330
1A78
100
AcDbVisualStyle
  2
Wireframe
 70
     5
 71
     0
 72
     2
 73
     0
 90
        0
 40
-0.6
 41
-30.0
 62
     5
 63
     7
 74
     1
 91
        4
 64
     7
 65
   257
 75
     1
175
     1
 42
1.0
 92
        0
 66
   257
 43
1.0
 76
     1
 77
     6
 78
     2
 67
     7
 79
     3
170
     0
171
     0
290
     0
174
     0
 93
        1
 44
0.0
173
     0
291
     0
 45
0.0
1001
ACAD
1000
AcDbSavedByObjectVersion
1070
     0
  0
VISUALSTYLE
  5
1A8B
102
{ACAD_XDICTIONARY
360
1E63
102
}
102
{ACAD_REACTORS
330
1A78
102
}
330
1A78
100
AcDbVisualStyle
  2
X-Ray
 70
    25
 71
     2
 72
     2
 73
     1
 90
        1
 40
0.5
 41
-30.0
 62
     5
 63
     7
 74
     1
 91
        0
 64
     7
 65
   257
 75
     1
175
     1
 42
1.0
 92
        8
 66
     7
 43
1.0
 76
     1
 77
     6
 78
     2
 67
     7
 79
     3
170
     0
171
     0
290
     0
174
     0
 93
       13
 44
0.0
173
     0
291
     0
 45
0.0
1001
ACAD
1000
AcDbSavedByObjectVersion
1070
     0
  0
DICTIONARYVAR
  5
1D87
102
{ACAD_REACTORS
330
14C2
102
}
330
14C2
100
DictionaryVariables
280
     0
  1
1:1
  0
DICTIONARYVAR
  5
1D86
102
{ACAD_REACTORS
330
14C2
102
}
330
14C2
100
DictionaryVariables
280
     0
  1
STANDARD
  0
DICTIONARYVAR
  5
19EB
102
{ACAD_REACTORS
330
14C2
102
}
330
14C2
100
DictionaryVariables
280
     0
  1
STANDARD
  0
DICTIONARYVAR
  5
1D8A
102
{ACAD_REACTORS
330
14C2
102
}
330
14C2
100
DictionaryVariables
280
     0
  1
1
  0
DICTIONARYVAR
  5
1D88
102
{ACAD_REACTORS
330
14C2
102
}
330
14C2
100
DictionaryVariables
280
     0
  1
0
  0
DICTIONARYVAR
  5
14C3
102
{ACAD_REACTORS
330
14C2
102
}
330
14C2
100
DictionaryVariables
280
     0
  1
96
  0
DICTIONARYVAR
  5
1DE2
102
{ACAD_REACTORS
330
14C2
102
}
330
14C2
100
DictionaryVariables
280
     0
  1
2
  0
DICTIONARY
  5
1B0D
102
{ACAD_REACTORS
330
1B02
102
}
330
1B02
100
AcDbDictionary
281
     1
  0
DICTIONARY
  5
1E30
330
19D0
100
AcDbDictionary
280
     1
281
     1
  3
ACAD_XREC_ROUNDTRIP
360
1E31
  0
DICTIONARY
  5
1E32
330
19D1
100
AcDbDictionary
280
     1
281
     1
  3
ACAD_XREC_ROUNDTRIP
360
1E33
  0
DICTIONARY
  5
1A69
330
1A68
100
AcDbDictionary
280
     1
281
     1
  3
ACAD_XREC_ROUNDTRIP
360
1E3D
  3
BUMPTILE
360
1A6B
  3
DIFFUSETILE
360
1A6A
  3
OPACITYTILE
360
1A6E
  3
REFLECTIONTILE
360
1A6D
  3
REFRACTIONTILE
360
1A6F
  3
SPECULARTILE
360
1A6C
  0
DICTIONARY
  5
1A61
330
1A60
100
AcDbDictionary
280
     1
281
     1
  3
ACAD_XREC_ROUNDTRIP
360
1E3C
  3
BUMPTILE
360
1A63
  3
DIFFUSETILE
360
1A62
  3
OPACITYTILE
360
1A66
  3
REFLECTIONTILE
360
1A65
  3
REFRACTIONTILE
360
1A67
  3
SPECULARTILE
360
1A64
  0
DICTIONARY
  5
1A71
330
1A70
100
AcDbDictionary
280
     1
281
     1
  3
ACAD_XREC_ROUNDTRIP
360
1E3E
  3
BUMPTILE
360
1A73
  3
DIFFUSETILE
360
1A72
  3
OPACITYTILE
360
1A76
  3
REFLECTIONTILE
360
1A75
  3
REFRACTIONTILE
360
1A77
  3
SPECULARTILE
360
1A74
  0
DICTIONARY
  5
1B5D
330
19CD
100
AcDbDictionary
280
     1
281
     1
  3
ACAD_ROUNDTRIP_2008_TABLESTYLE_CELLSTYLEMAP
360
1DE3
  3
ACAD_XREC_ROUNDTRIP
360
1E2F
  0
DICTIONARY
  5
1E49
330
1A7E
100
AcDbDictionary
280
     1
281
     1
  3
ACAD_XREC_ROUNDTRIP
360
1E4A
  0
DICTIONARY
  5
1E47
330
1A7D
100
AcDbDictionary
280
     1
281
     1
  3
ACAD_XREC_ROUNDTRIP
360
1E48
  0
DICTIONARY
  5
1E55
330
1A84
100
AcDbDictionary
280
     1
281
     1
  3
ACAD_XREC_ROUNDTRIP
360
1E56
  0
DICTIONARY
  5
1E5D
330
1A88
100
AcDbDictionary
280
     1
281
     1
  3
ACAD_XREC_ROUNDTRIP
360
1E5E
  0
DICTIONARY
  5
1E4F
330
1A81
100
AcDbDictionary
280
     1
281
     1
  3
ACAD_XREC_ROUNDTRIP
360
1E50
  0
DICTIONARY
  5
1E53
330
1A83
100
AcDbDictionary
280
     1
281
     1
  3
ACAD_XREC_ROUNDTRIP
360
1E54
  0
DICTIONARY
  5
1E6D
330
1A90
100
AcDbDictionary
280
     1
281
     1
  3
ACAD_XREC_ROUNDTRIP
360
1E6E
  0
DICTIONARY
  5
1E5B
330
1A87
100
AcDbDictionary
280
     1
281
     1
  3
ACAD_XREC_ROUNDTRIP
360
1E5C
  0
DICTIONARY
  5
1E3F
330
1A79
100
AcDbDictionary
280
     1
281
     1
  3
ACAD_XREC_ROUNDTRIP
360
1E40
  0
DICTIONARY
  5
1E41
330
1A7A
100
AcDbDictionary
280
     1
281
     1
  3
ACAD_XREC_ROUNDTRIP
360
1E42
  0
DICTIONARY
  5
1E43
330
1A7B
100
AcDbDictionary
280
     1
281
     1
  3
ACAD_XREC_ROUNDTRIP
360
1E44
  0
DICTIONARY
  5
1E45
330
1A7C
100
AcDbDictionary
280
     1
281
     1
  3
ACAD_XREC_ROUNDTRIP
360
1E46
  0
DICTIONARY
  5
1E4D
330
1A80
100
AcDbDictionary
280
     1
281
     1
  3
ACAD_XREC_ROUNDTRIP
360
1E4E
  0
DICTIONARY
  5
1E69
330
1A8E
100
AcDbDictionary
280
     1
281
     1
  3
ACAD_XREC_ROUNDTRIP
360
1E6A
  0
DICTIONARY
  5
1E59
330
1A86
100
AcDbDictionary
280
     1
281
     1
  3
ACAD_XREC_ROUNDTRIP
360
1E5A
  0
DICTIONARY
  5
1E6B
330
1A8F
100
AcDbDictionary
280
     1
281
     1
  3
ACAD_XREC_ROUNDTRIP
360
1E6C
  0
DICTIONARY
  5
1E51
330
1A82
100
AcDbDictionary
280
     1
281
     1
  3
ACAD_XREC_ROUNDTRIP
360
1E52
  0
DICTIONARY
  5
1E67
330
1A8D
100
AcDbDictionary
280
     1
281
     1
  3
ACAD_XREC_ROUNDTRIP
360
1E68
  0
DICTIONARY
  5
1E65
330
1A8C
100
AcDbDictionary
280
     1
281
     1
  3
ACAD_XREC_ROUNDTRIP
360
1E66
  0
DICTIONARY
  5
1E5F
330
1A89
100
AcDbDictionary
280
     1
281
     1
  3
ACAD_XREC_ROUNDTRIP
360
1E60
  0
DICTIONARY
  5
1E61
330
1A8A
100
AcDbDictionary
280
     1
281
     1
  3
ACAD_XREC_ROUNDTRIP
360
1E62
  0
DICTIONARY
  5
1E57
330
1A85
100
AcDbDictionary
280
     1
281
     1
  3
ACAD_XREC_ROUNDTRIP
360
1E58
  0
DICTIONARY
  5
1E4B
330
1A7F
100
AcDbDictionary
280
     1
281
     1
  3
ACAD_XREC_ROUNDTRIP
360
1E4C
  0
DICTIONARY
  5
1E63
330
1A8B
100
AcDbDictionary
280
     1
281
     1
  3
ACAD_XREC_ROUNDTRIP
360
1E64
  0
XRECORD
  5
1E31
102
{ACAD_REACTORS
330
1E30
102
}
330
1E30
100
AcDbXrecord
280
     1
102
SHADEPLOT
 70
     0
102
SHADEPLOTRESLEVEL
 70
     2
102
SHADEPLOTCUSTOMDPI
 70
   300
  0
XRECORD
  5
1E33
102
{ACAD_REACTORS
330
1E32
102
}
330
1E32
100
AcDbXrecord
280
     1
102
SHADEPLOT
 70
     0
102
SHADEPLOTRESLEVEL
 70
     2
102
SHADEPLOTCUSTOMDPI
 70
   300
  0
XRECORD
  5
1E3D
102
{ACAD_REACTORS
330
1A69
102
}
330
1A69
100
AcDbXrecord
280
     1
102
MATERIAL
148
0.0
149
0.0
149
0.0
 93
        0
 94
      127
282
     0
 72
     0
 77
     0
171
     0
175
     0
179
     0
273
     0
  0
XRECORD
  5
1A6B
102
{ACAD_REACTORS
330
1A69
102
}
330
1A69
100
AcDbXrecord
280
     1
270
     1
271
     1
  0
XRECORD
  5
1A6A
102
{ACAD_REACTORS
330
1A69
102
}
330
1A69
100
AcDbXrecord
280
     1
270
     1
271
     1
  0
XRECORD
  5
1A6E
102
{ACAD_REACTORS
330
1A69
102
}
330
1A69
100
AcDbXrecord
280
     1
270
     1
271
     1
  0
XRECORD
  5
1A6D
102
{ACAD_REACTORS
330
1A69
102
}
330
1A69
100
AcDbXrecord
280
     1
270
     1
271
     1
  0
XRECORD
  5
1A6F
102
{ACAD_REACTORS
330
1A69
102
}
330
1A69
100
AcDbXrecord
280
     1
270
     1
271
     1
  0
XRECORD
  5
1A6C
102
{ACAD_REACTORS
330
1A69
102
}
330
1A69
100
AcDbXrecord
280
     1
270
     1
271
     1
  0
XRECORD
  5
1E3C
102
{ACAD_REACTORS
330
1A61
102
}
330
1A61
100
AcDbXrecord
280
     1
102
MATERIAL
148
0.0
149
0.0
149
0.0
 93
        0
 94
      127
282
     0
 72
     0
 77
     0
171
     0
175
     0
179
     0
273
     0
  0
XRECORD
  5
1A63
102
{ACAD_REACTORS
330
1A61
102
}
330
1A61
100
AcDbXrecord
280
     1
270
     1
271
     1
  0
XRECORD
  5
1A62
102
{ACAD_REACTORS
330
1A61
102
}
330
1A61
100
AcDbXrecord
280
     1
270
     1
271
     1
  0
XRECORD
  5
1A66
102
{ACAD_REACTORS
330
1A61
102
}
330
1A61
100
AcDbXrecord
280
     1
270
     1
271
     1
  0
XRECORD
  5
1A65
102
{ACAD_REACTORS
330
1A61
102
}
330
1A61
100
AcDbXrecord
280
     1
270
     1
271
     1
  0
XRECORD
  5
1A67
102
{ACAD_REACTORS
330
1A61
102
}
330
1A61
100
AcDbXrecord
280
     1
270
     1
271
     1
  0
XRECORD
  5
1A64
102
{ACAD_REACTORS
330
1A61
102
}
330
1A61
100
AcDbXrecord
280
     1
270
     1
271
     1
  0
XRECORD
  5
1E3E
102
{ACAD_REACTORS
330
1A71
102
}
330
1A71
100
AcDbXrecord
280
     1
102
MATERIAL
148
0.0
149
0.0
149
0.0
 93
        0
 94
      127
282
     0
 72
     0
 77
     0
171
     0
175
     0
179
     0
273
     0
  0
XRECORD
  5
1A73
102
{ACAD_REACTORS
330
1A71
102
}
330
1A71
100
AcDbXrecord
280
     1
270
     1
271
     1
  0
XRECORD
  5
1A72
102
{ACAD_REACTORS
330
1A71
102
}
330
1A71
100
AcDbXrecord
280
     1
270
     1
271
     1
  0
XRECORD
  5
1A76
102
{ACAD_REACTORS
330
1A71
102
}
330
1A71
100
AcDbXrecord
280
     1
270
     1
271
     1
  0
XRECORD
  5
1A75
102
{ACAD_REACTORS
330
1A71
102
}
330
1A71
100
AcDbXrecord
280
     1
270
     1
271
     1
  0
XRECORD
  5
1A77
102
{ACAD_REACTORS
330
1A71
102
}
330
1A71
100
AcDbXrecord
280
     1
270
     1
271
     1
  0
XRECORD
  5
1A74
102
{ACAD_REACTORS
330
1A71
102
}
330
1A71
100
AcDbXrecord
280
     1
270
     1
271
     1
  0
CELLSTYLEMAP
  5
1DE3
102
{ACAD_REACTORS
330
1B5D
102
}
330
1B5D
100
AcDbCellStyleMap
 90
        3
300
CELLSTYLE
  1
TABLEFORMAT_BEGIN
 90
        5
170
     1
 91
        0
 92
    32768
 62
   257
 93
        1
300
CONTENTFORMAT
  1
CONTENTFORMAT_BEGIN
 90
        0
 91
        0
 92
        4
 93
        0
300

 40
0.0
140
1.0
 94
        5
 62
     0
340
F
144
6.0
309
CONTENTFORMAT_END
171
     1
301
MARGIN
  1
CELLMARGIN_BEGIN
 40
1.5
 40
1.5
 40
1.5
 40
1.5
 40
0.18
 40
0.18
309
CELLMARGIN_END
 94
        6
 95
        1
302
GRIDFORMAT
  1
GRIDFORMAT_BEGIN
 90
        0
 91
        1
 62
     0
 92
       -2
340
0
 93
        0
 40
0.045
309
GRIDFORMAT_END
 95
        2
302
GRIDFORMAT
  1
GRIDFORMAT_BEGIN
 90
        0
 91
        1
 62
     0
 92
       -2
340
0
 93
        0
 40
0.045
309
GRIDFORMAT_END
 95
        4
302
GRIDFORMAT
  1
GRIDFORMAT_BEGIN
 90
        0
 91
        1
 62
     0
 92
       -2
340
0
 93
        0
 40
0.045
309
GRIDFORMAT_END
 95
        8
302
GRIDFORMAT
  1
GRIDFORMAT_BEGIN
 90
        0
 91
        1
 62
     0
 92
       -2
340
0
 93
        0
 40
0.045
309
GRIDFORMAT_END
 95
       16
302
GRIDFORMAT
  1
GRIDFORMAT_BEGIN
 90
        0
 91
        1
 62
     0
 92
       -2
340
0
 93
        0
 40
0.045
309
GRIDFORMAT_END
 95
       32
302
GRIDFORMAT
  1
GRIDFORMAT_BEGIN
 90
        0
 91
        1
 62
     0
 92
       -2
340
0
 93
        0
 40
0.045
309
GRIDFORMAT_END
309
TABLEFORMAT_END
  1
CELLSTYLE_BEGIN
 90
        1
 91
        1
300
_TITLE
309
CELLSTYLE_END
300
CELLSTYLE
  1
TABLEFORMAT_BEGIN
 90
        5
170
     1
 91
        0
 92
        0
 62
   257
 93
        1
300
CONTENTFORMAT
  1
CONTENTFORMAT_BEGIN
 90
        0
 91
        0
 92
        4
 93
        0
300

 40
0.0
140
1.0
 94
        5
 62
     0
340
F
144
4.5
309
CONTENTFORMAT_END
171
     1
301
MARGIN
  1
CELLMARGIN_BEGIN
 40
1.5
 40
1.5
 40
1.5
 40
1.5
 40
0.18
 40
0.18
309
CELLMARGIN_END
 94
        6
 95
        1
302
GRIDFORMAT
  1
GRIDFORMAT_BEGIN
 90
        0
 91
        1
 62
     0
 92
       -2
340
0
 93
        0
 40
0.045
309
GRIDFORMAT_END
 95
        2
302
GRIDFORMAT
  1
GRIDFORMAT_BEGIN
 90
        0
 91
        1
 62
     0
 92
       -2
340
0
 93
        0
 40
0.045
309
GRIDFORMAT_END
 95
        4
302
GRIDFORMAT
  1
GRIDFORMAT_BEGIN
 90
        0
 91
        1
 62
     0
 92
       -2
340
0
 93
        0
 40
0.045
309
GRIDFORMAT_END
 95
        8
302
GRIDFORMAT
  1
GRIDFORMAT_BEGIN
 90
        0
 91
        1
 62
     0
 92
       -2
340
0
 93
        0
 40
0.045
309
GRIDFORMAT_END
 95
       16
302
GRIDFORMAT
  1
GRIDFORMAT_BEGIN
 90
        0
 91
        1
 62
     0
 92
       -2
340
0
 93
        0
 40
0.045
309
GRIDFORMAT_END
 95
       32
302
GRIDFORMAT
  1
GRIDFORMAT_BEGIN
 90
        0
 91
        1
 62
     0
 92
       -2
340
0
 93
        0
 40
0.045
309
GRIDFORMAT_END
309
TABLEFORMAT_END
  1
CELLSTYLE_BEGIN
 90
        2
 91
        1
300
_HEADER
309
CELLSTYLE_END
300
CELLSTYLE
  1
TABLEFORMAT_BEGIN
 90
        5
170
     1
 91
        0
 92
        0
 62
   257
 93
        1
300
CONTENTFORMAT
  1
CONTENTFORMAT_BEGIN
 90
        0
 91
        0
 92
        4
 93
        0
300

 40
0.0
140
1.0
 94
        2
 62
     0
340
F
144
4.5
309
CONTENTFORMAT_END
171
     1
301
MARGIN
  1
CELLMARGIN_BEGIN
 40
1.5
 40
1.5
 40
1.5
 40
1.5
 40
0.18
 40
0.18
309
CELLMARGIN_END
 94
        6
 95
        1
302
GRIDFORMAT
  1
GRIDFORMAT_BEGIN
 90
        0
 91
        1
 62
     0
 92
       -2
340
0
 93
        0
 40
0.045
309
GRIDFORMAT_END
 95
        2
302
GRIDFORMAT
  1
GRIDFORMAT_BEGIN
 90
        0
 91
        1
 62
     0
 92
       -2
340
0
 93
        0
 40
0.045
309
GRIDFORMAT_END
 95
        4
302
GRIDFORMAT
  1
GRIDFORMAT_BEGIN
 90
        0
 91
        1
 62
     0
 92
       -2
340
0
 93
        0
 40
0.045
309
GRIDFORMAT_END
 95
        8
302
GRIDFORMAT
  1
GRIDFORMAT_BEGIN
 90
        0
 91
        1
 62
     0
 92
       -2
340
0
 93
        0
 40
0.045
309
GRIDFORMAT_END
 95
       16
302
GRIDFORMAT
  1
GRIDFORMAT_BEGIN
 90
        0
 91
        1
 62
     0
 92
       -2
340
0
 93
        0
 40
0.045
309
GRIDFORMAT_END
 95
       32
302
GRIDFORMAT
  1
GRIDFORMAT_BEGIN
 90
        0
 91
        1
 62
     0
 92
       -2
340
0
 93
        0
 40
0.045
309
GRIDFORMAT_END
309
TABLEFORMAT_END
  1
CELLSTYLE_BEGIN
 90
        3
 91
        2
300
_DATA
309
CELLSTYLE_END
  0
XRECORD
  5
1E2F
102
{ACAD_REACTORS
330
1B5D
102
}
330
1B5D
100
AcDbXrecord
280
     1
102
ACAD_ROUNDTRIP_PRE2007_TABLESTYLE
 90
        4
 91
        0
  1

 92
        4
 93
        0
  2

 94
        4
 95
        0
  3

  0
XRECORD
  5
1E4A
102
{ACAD_REACTORS
330
1E49
102
}
330
1E49
100
AcDbXrecord
280
     1
102
RTVSPropertyOp0
 70
     1
102
RTVSPropertyOp1
 70
     1
102
RTVSPropertyOp2
 70
     1
102
RTVSPropertyOp3
 70
     1
102
RTVSPropertyOp4
 70
     1
102
RTVSPropertyOp5
 70
     1
102
RTVSPropertyOp6
 70
     1
102
RTVSPropertyOp7
 70
     1
102
RTVSPropertyOp8
 70
     1
102
RTVSPropertyOp9
 70
     1
102
RTVSPropertyOp10
 70
     1
102
RTVSPropertyOp11
 70
     1
102
RTVSPropertyOp12
 70
     1
102
RTVSPropertyOp13
 70
     1
102
RTVSPropertyOp14
 70
     1
102
RTVSPropertyOp15
 70
     1
102
RTVSPropertyOp16
 70
     1
102
RTVSPropertyOp17
 70
     1
102
RTVSPropertyOp18
 70
     1
102
RTVSPropertyOp19
 70
     1
102
RTVSPropertyOp20
 70
     1
102
RTVSPropertyOp21
 70
     1
102
RTVSPropertyOp22
 70
     1
102
RTVSPropertyOp23
 70
     1
102
RTVSPropertyOp24
 70
     1
102
RTVSPropertyOp25
 70
     1
102
RTVSPropertyOp26
 70
     1
102
RTVSPropertyOp27
 70
     1
102
RTVSPropertyOp28
 70
     1
102
RTVSPropertyOp29
 70
     1
102
RTVSPropertyOp30
 70
     1
102
RTVSPropertyOp31
 70
     1
102
RTVSPropertyOp32
 70
     1
  0
XRECORD
  5
1E48
102
{ACAD_REACTORS
330
1E47
102
}
330
1E47
100
AcDbXrecord
280
     1
102
RTVSPropertyOp0
 70
     1
102
RTVSPropertyOp1
 70
     1
102
RTVSPropertyOp2
 70
     1
102
RTVSPropertyOp3
 70
     1
102
RTVSPropertyOp4
 70
     1
102
RTVSPropertyOp5
 70
     1
102
RTVSPropertyOp6
 70
     1
102
RTVSPropertyOp7
 70
     1
102
RTVSPropertyOp8
 70
     1
102
RTVSPropertyOp9
 70
     1
102
RTVSPropertyOp10
 70
     1
102
RTVSPropertyOp11
 70
     1
102
RTVSPropertyOp12
 70
     1
102
RTVSPropertyOp13
 70
     1
102
RTVSPropertyOp14
 70
     1
102
RTVSPropertyOp15
 70
     1
102
RTVSPropertyOp16
 70
     1
102
RTVSPropertyOp17
 70
     1
102
RTVSPropertyOp18
 70
     1
102
RTVSPropertyOp19
 70
     1
102
RTVSPropertyOp20
 70
     1
102
RTVSPropertyOp21
 70
     1
102
RTVSPropertyOp22
 70
     1
102
RTVSPropertyOp23
 70
     1
102
RTVSPropertyOp24
 70
     1
102
RTVSPropertyOp25
 70
     1
102
RTVSPropertyOp26
 70
     1
102
RTVSPropertyOp27
 70
     1
102
RTVSPropertyOp28
 70
     1
102
RTVSPropertyOp29
 70
     1
102
RTVSPropertyOp30
 70
     1
102
RTVSPropertyOp31
 70
     1
102
RTVSPropertyOp32
 70
     1
  0
XRECORD
  5
1E56
102
{ACAD_REACTORS
330
1E55
102
}
330
1E55
100
AcDbXrecord
280
     1
102
RTVSPropertyOp0
 70
     1
102
RTVSPropertyOp1
 70
     1
102
RTVSPropertyOp2
 70
     1
102
RTVSPropertyOp3
 70
     1
102
RTVSPropertyOp4
 70
     1
102
RTVSPropertyOp5
 70
     1
102
RTVSPropertyOp6
 70
     1
102
RTVSPropertyOp7
 70
     1
102
RTVSPropertyOp8
 70
     1
102
RTVSPropertyOp9
 70
     1
102
RTVSPropertyOp10
 70
     1
102
RTVSPropertyOp11
 70
     1
102
RTVSPropertyOp12
 70
     1
102
RTVSPropertyOp13
 70
     1
102
RTVSPropertyOp14
 70
     1
102
RTVSPropertyOp15
 70
     1
102
RTVSPropertyOp16
 70
     1
102
RTVSPropertyOp17
 70
     1
102
RTVSPropertyOp18
 70
     1
102
RTVSPropertyOp19
 70
     1
102
RTVSPropertyOp20
 70
     1
102
RTVSPropertyOp21
 70
     1
102
RTVSPropertyOp22
 70
     1
102
RTVSPropertyOp23
 70
     1
102
RTVSPropertyOp24
 70
     1
102
RTVSPropertyOp25
 70
     1
102
RTVSPropertyOp26
 70
     1
102
RTVSPropertyOp27
 70
     1
102
RTVSPropertyOp28
 70
     1
102
RTVSPropertyOp29
 70
     1
102
RTVSPropertyOp30
 70
     1
102
RTVSPropertyOp31
 70
     1
102
RTVSPropertyOp32
 70
     1
  0
XRECORD
  5
1E5E
102
{ACAD_REACTORS
330
1E5D
102
}
330
1E5D
100
AcDbXrecord
280
     1
102
RTVSPropertyOp0
 70
     1
102
RTVSPropertyOp1
 70
     1
102
RTVSPropertyOp2
 70
     1
102
RTVSPropertyOp3
 70
     1
102
RTVSPropertyOp4
 70
     1
102
RTVSPropertyOp5
 70
     1
102
RTVSPropertyOp6
 70
     1
102
RTVSPropertyOp7
 70
     1
102
RTVSPropertyOp8
 70
     1
102
RTVSPropertyOp9
 70
     1
102
RTVSPropertyOp10
 70
     1
102
RTVSPropertyOp11
 70
     1
102
RTVSPropertyOp12
 70
     1
102
RTVSPropertyOp13
 70
     1
102
RTVSPropertyOp14
 70
     1
102
RTVSPropertyOp15
 70
     1
102
RTVSPropertyOp16
 70
     1
102
RTVSPropertyOp17
 70
     1
102
RTVSPropertyOp18
 70
     1
102
RTVSPropertyOp19
 70
     1
102
RTVSPropertyOp20
 70
     1
102
RTVSPropertyOp21
 70
     1
102
RTVSPropertyOp22
 70
     1
102
RTVSPropertyOp23
 70
     1
102
RTVSPropertyOp24
 70
     1
102
RTVSPropertyOp25
 70
     1
102
RTVSPropertyOp26
 70
     1
102
RTVSPropertyOp27
 70
     1
102
RTVSPropertyOp28
 70
     1
102
RTVSPropertyOp29
 70
     1
102
RTVSPropertyOp30
 70
     1
102
RTVSPropertyOp31
 70
     1
102
RTVSPropertyOp32
 70
     1
  0
XRECORD
  5
1E50
102
{ACAD_REACTORS
330
1E4F
102
}
330
1E4F
100
AcDbXrecord
280
     1
102
RTVSPropertyOp0
 70
     1
102
RTVSPropertyOp1
 70
     1
102
RTVSPropertyOp2
 70
     1
102
RTVSPropertyOp3
 70
     1
102
RTVSPropertyOp4
 70
     1
102
RTVSPropertyOp5
 70
     1
102
RTVSPropertyOp6
 70
     1
102
RTVSPropertyOp7
 70
     1
102
RTVSPropertyOp8
 70
     1
102
RTVSPropertyOp9
 70
     1
102
RTVSPropertyOp10
 70
     1
102
RTVSPropertyOp11
 70
     1
102
RTVSPropertyOp12
 70
     1
102
RTVSPropertyOp13
 70
     1
102
RTVSPropertyOp14
 70
     1
102
RTVSPropertyOp15
 70
     1
102
RTVSPropertyOp16
 70
     1
102
RTVSPropertyOp17
 70
     1
102
RTVSPropertyOp18
 70
     1
102
RTVSPropertyOp19
 70
     1
102
RTVSPropertyOp20
 70
     1
102
RTVSPropertyOp21
 70
     1
102
RTVSPropertyOp22
 70
     1
102
RTVSPropertyOp23
 70
     1
102
RTVSPropertyOp24
 70
     1
102
RTVSPropertyOp25
 70
     1
102
RTVSPropertyOp26
 70
     1
102
RTVSPropertyOp27
 70
     1
102
RTVSPropertyOp28
 70
     1
102
RTVSPropertyOp29
 70
     1
102
RTVSPropertyOp30
 70
     1
102
RTVSPropertyOp31
 70
     1
102
RTVSPropertyOp32
 70
     1
  0
XRECORD
  5
1E54
102
{ACAD_REACTORS
330
1E53
102
}
330
1E53
100
AcDbXrecord
280
     1
102
RTVSPropertyOp0
 70
     1
102
RTVSPropertyOp1
 70
     1
102
RTVSPropertyOp2
 70
     1
102
RTVSPropertyOp3
 70
     1
102
RTVSPropertyOp4
 70
     1
102
RTVSPropertyOp5
 70
     1
102
RTVSPropertyOp6
 70
     1
102
RTVSPropertyOp7
 70
     1
102
RTVSPropertyOp8
 70
     1
102
RTVSPropertyOp9
 70
     1
102
RTVSPropertyOp10
 70
     1
102
RTVSPropertyOp11
 70
     1
102
RTVSPropertyOp12
 70
     1
102
RTVSPropertyOp13
 70
     1
102
RTVSPropertyOp14
 70
     1
102
RTVSPropertyOp15
 70
     1
102
RTVSPropertyOp16
 70
     1
102
RTVSPropertyOp17
 70
     1
102
RTVSPropertyOp18
 70
     1
102
RTVSPropertyOp19
 70
     1
102
RTVSPropertyOp20
 70
     1
102
RTVSPropertyOp21
 70
     1
102
RTVSPropertyOp22
 70
     1
102
RTVSPropertyOp23
 70
     1
102
RTVSPropertyOp24
 70
     1
102
RTVSPropertyOp25
 70
     1
102
RTVSPropertyOp26
 70
     1
102
RTVSPropertyOp27
 70
     1
102
RTVSPropertyOp28
 70
     1
102
RTVSPropertyOp29
 70
     1
102
RTVSPropertyOp30
 70
     1
102
RTVSPropertyOp31
 70
     1
102
RTVSPropertyOp32
 70
     1
  0
XRECORD
  5
1E6E
102
{ACAD_REACTORS
330
1E6D
102
}
330
1E6D
100
AcDbXrecord
280
     1
102
RTVSPropertyOp0
 70
     0
102
RTVSPropertyOp1
 70
     0
102
RTVSPropertyOp2
 70
     0
102
RTVSPropertyOp3
 70
     0
102
RTVSPropertyOp4
 70
     0
102
RTVSPropertyOp5
 70
     0
102
RTVSPropertyOp6
 70
     0
102
RTVSPropertyOp7
 70
     0
102
RTVSPropertyOp8
 70
     0
102
RTVSPropertyOp9
 70
     0
102
RTVSPropertyOp10
 70
     0
102
RTVSPropertyOp11
 70
     0
102
RTVSPropertyOp12
 70
     0
102
RTVSPropertyOp13
 70
     0
102
RTVSPropertyOp14
 70
     2
102
RTVSPropertyOp15
 70
     0
102
RTVSPropertyOp16
 70
     0
102
RTVSPropertyOp17
 70
     0
102
RTVSPropertyOp18
 70
     0
102
RTVSPropertyOp19
 70
     0
102
RTVSPropertyOp20
 70
     0
102
RTVSPropertyOp21
 70
     0
102
RTVSPropertyOp22
 70
     0
102
RTVSPropertyOp23
 70
     0
102
RTVSPropertyOp24
 70
     0
102
RTVSPropertyOp25
 70
     0
102
RTVSPropertyOp26
 70
     0
102
RTVSPropertyOp27
 70
     0
102
RTVSPropertyOp28
 70
     0
102
RTVSPropertyOp29
 70
     0
102
RTVSPropertyOp30
 70
     0
102
RTVSPropertyOp31
 70
     0
102
RTVSPropertyOp32
 70
     0
  0
XRECORD
  5
1E5C
102
{ACAD_REACTORS
330
1E5B
102
}
330
1E5B
100
AcDbXrecord
280
     1
102
RTVSPropertyOp0
 70
     1
102
RTVSPropertyOp1
 70
     1
102
RTVSPropertyOp2
 70
     1
102
RTVSPropertyOp3
 70
     1
102
RTVSPropertyOp4
 70
     1
102
RTVSPropertyOp5
 70
     1
102
RTVSPropertyOp6
 70
     1
102
RTVSPropertyOp7
 70
     1
102
RTVSPropertyOp8
 70
     1
102
RTVSPropertyOp9
 70
     1
102
RTVSPropertyOp10
 70
     1
102
RTVSPropertyOp11
 70
     1
102
RTVSPropertyOp12
 70
     1
102
RTVSPropertyOp13
 70
     1
102
RTVSPropertyOp14
 70
     1
102
RTVSPropertyOp15
 70
     1
102
RTVSPropertyOp16
 70
     1
102
RTVSPropertyOp17
 70
     1
102
RTVSPropertyOp18
 70
     1
102
RTVSPropertyOp19
 70
     1
102
RTVSPropertyOp20
 70
     1
102
RTVSPropertyOp21
 70
     1
102
RTVSPropertyOp22
 70
     1
102
RTVSPropertyOp23
 70
     1
102
RTVSPropertyOp24
 70
     1
102
RTVSPropertyOp25
 70
     1
102
RTVSPropertyOp26
 70
     1
102
RTVSPropertyOp27
 70
     1
102
RTVSPropertyOp28
 70
     1
102
RTVSPropertyOp29
 70
     1
102
RTVSPropertyOp30
 70
     1
102
RTVSPropertyOp31
 70
     1
102
RTVSPropertyOp32
 70
     1
  0
XRECORD
  5
1E40
102
{ACAD_REACTORS
330
1E3F
102
}
330
1E3F
100
AcDbXrecord
280
     1
102
RTVSPropertyOp0
 70
     1
102
RTVSPropertyOp1
 70
     1
102
RTVSPropertyOp2
 70
     1
102
RTVSPropertyOp3
 70
     1
102
RTVSPropertyOp4
 70
     1
102
RTVSPropertyOp5
 70
     1
102
RTVSPropertyOp6
 70
     1
102
RTVSPropertyOp7
 70
     1
102
RTVSPropertyOp8
 70
     1
102
RTVSPropertyOp9
 70
     1
102
RTVSPropertyOp10
 70
     1
102
RTVSPropertyOp11
 70
     1
102
RTVSPropertyOp12
 70
     1
102
RTVSPropertyOp13
 70
     1
102
RTVSPropertyOp14
 70
     1
102
RTVSPropertyOp15
 70
     1
102
RTVSPropertyOp16
 70
     1
102
RTVSPropertyOp17
 70
     1
102
RTVSPropertyOp18
 70
     1
102
RTVSPropertyOp19
 70
     1
102
RTVSPropertyOp20
 70
     1
102
RTVSPropertyOp21
 70
     1
102
RTVSPropertyOp22
 70
     1
102
RTVSPropertyOp23
 70
     1
102
RTVSPropertyOp24
 70
     1
102
RTVSPropertyOp25
 70
     1
102
RTVSPropertyOp26
 70
     1
102
RTVSPropertyOp27
 70
     1
102
RTVSPropertyOp28
 70
     1
102
RTVSPropertyOp29
 70
     1
102
RTVSPropertyOp30
 70
     1
102
RTVSPropertyOp31
 70
     1
102
RTVSPropertyOp32
 70
     1
  0
XRECORD
  5
1E42
102
{ACAD_REACTORS
330
1E41
102
}
330
1E41
100
AcDbXrecord
280
     1
102
RTVSPropertyOp0
 70
     1
102
RTVSPropertyOp1
 70
     1
102
RTVSPropertyOp2
 70
     1
102
RTVSPropertyOp3
 70
     1
102
RTVSPropertyOp4
 70
     1
102
RTVSPropertyOp5
 70
     1
102
RTVSPropertyOp6
 70
     1
102
RTVSPropertyOp7
 70
     1
102
RTVSPropertyOp8
 70
     1
102
RTVSPropertyOp9
 70
     1
102
RTVSPropertyOp10
 70
     1
102
RTVSPropertyOp11
 70
     1
102
RTVSPropertyOp12
 70
     1
102
RTVSPropertyOp13
 70
     1
102
RTVSPropertyOp14
 70
     1
102
RTVSPropertyOp15
 70
     1
102
RTVSPropertyOp16
 70
     1
102
RTVSPropertyOp17
 70
     1
102
RTVSPropertyOp18
 70
     1
102
RTVSPropertyOp19
 70
     1
102
RTVSPropertyOp20
 70
     1
102
RTVSPropertyOp21
 70
     1
102
RTVSPropertyOp22
 70
     1
102
RTVSPropertyOp23
 70
     1
102
RTVSPropertyOp24
 70
     1
102
RTVSPropertyOp25
 70
     1
102
RTVSPropertyOp26
 70
     1
102
RTVSPropertyOp27
 70
     1
102
RTVSPropertyOp28
 70
     1
102
RTVSPropertyOp29
 70
     1
102
RTVSPropertyOp30
 70
     1
102
RTVSPropertyOp31
 70
     1
102
RTVSPropertyOp32
 70
     1
  0
XRECORD
  5
1E44
102
{ACAD_REACTORS
330
1E43
102
}
330
1E43
100
AcDbXrecord
280
     1
102
RTVSPropertyOp0
 70
     1
102
RTVSPropertyOp1
 70
     1
102
RTVSPropertyOp2
 70
     1
102
RTVSPropertyOp3
 70
     1
102
RTVSPropertyOp4
 70
     1
102
RTVSPropertyOp5
 70
     1
102
RTVSPropertyOp6
 70
     1
102
RTVSPropertyOp7
 70
     1
102
RTVSPropertyOp8
 70
     1
102
RTVSPropertyOp9
 70
     1
102
RTVSPropertyOp10
 70
     1
102
RTVSPropertyOp11
 70
     1
102
RTVSPropertyOp12
 70
     1
102
RTVSPropertyOp13
 70
     1
102
RTVSPropertyOp14
 70
     1
102
RTVSPropertyOp15
 70
     1
102
RTVSPropertyOp16
 70
     1
102
RTVSPropertyOp17
 70
     1
102
RTVSPropertyOp18
 70
     1
102
RTVSPropertyOp19
 70
     1
102
RTVSPropertyOp20
 70
     1
102
RTVSPropertyOp21
 70
     1
102
RTVSPropertyOp22
 70
     1
102
RTVSPropertyOp23
 70
     1
102
RTVSPropertyOp24
 70
     1
102
RTVSPropertyOp25
 70
     1
102
RTVSPropertyOp26
 70
     1
102
RTVSPropertyOp27
 70
     1
102
RTVSPropertyOp28
 70
     1
102
RTVSPropertyOp29
 70
     1
102
RTVSPropertyOp30
 70
     1
102
RTVSPropertyOp31
 70
     1
102
RTVSPropertyOp32
 70
     1
  0
XRECORD
  5
1E46
102
{ACAD_REACTORS
330
1E45
102
}
330
1E45
100
AcDbXrecord
280
     1
102
RTVSPropertyOp0
 70
     1
102
RTVSPropertyOp1
 70
     1
102
RTVSPropertyOp2
 70
     1
102
RTVSPropertyOp3
 70
     1
102
RTVSPropertyOp4
 70
     1
102
RTVSPropertyOp5
 70
     1
102
RTVSPropertyOp6
 70
     1
102
RTVSPropertyOp7
 70
     1
102
RTVSPropertyOp8
 70
     1
102
RTVSPropertyOp9
 70
     1
102
RTVSPropertyOp10
 70
     1
102
RTVSPropertyOp11
 70
     1
102
RTVSPropertyOp12
 70
     1
102
RTVSPropertyOp13
 70
     1
102
RTVSPropertyOp14
 70
     1
102
RTVSPropertyOp15
 70
     1
102
RTVSPropertyOp16
 70
     1
102
RTVSPropertyOp17
 70
     1
102
RTVSPropertyOp18
 70
     1
102
RTVSPropertyOp19
 70
     1
102
RTVSPropertyOp20
 70
     1
102
RTVSPropertyOp21
 70
     1
102
RTVSPropertyOp22
 70
     1
102
RTVSPropertyOp23
 70
     1
102
RTVSPropertyOp24
 70
     1
102
RTVSPropertyOp25
 70
     1
102
RTVSPropertyOp26
 70
     1
102
RTVSPropertyOp27
 70
     1
102
RTVSPropertyOp28
 70
     1
102
RTVSPropertyOp29
 70
     1
102
RTVSPropertyOp30
 70
     1
102
RTVSPropertyOp31
 70
     1
102
RTVSPropertyOp32
 70
     1
  0
XRECORD
  5
1E4E
102
{ACAD_REACTORS
330
1E4D
102
}
330
1E4D
100
AcDbXrecord
280
     1
102
RTVSPropertyOp0
 70
     1
102
RTVSPropertyOp1
 70
     1
102
RTVSPropertyOp2
 70
     1
102
RTVSPropertyOp3
 70
     1
102
RTVSPropertyOp4
 70
     1
102
RTVSPropertyOp5
 70
     1
102
RTVSPropertyOp6
 70
     1
102
RTVSPropertyOp7
 70
     1
102
RTVSPropertyOp8
 70
     1
102
RTVSPropertyOp9
 70
     1
102
RTVSPropertyOp10
 70
     1
102
RTVSPropertyOp11
 70
     1
102
RTVSPropertyOp12
 70
     1
102
RTVSPropertyOp13
 70
     1
102
RTVSPropertyOp14
 70
     1
102
RTVSPropertyOp15
 70
     1
102
RTVSPropertyOp16
 70
     1
102
RTVSPropertyOp17
 70
     1
102
RTVSPropertyOp18
 70
     1
102
RTVSPropertyOp19
 70
     1
102
RTVSPropertyOp20
 70
     1
102
RTVSPropertyOp21
 70
     1
102
RTVSPropertyOp22
 70
     1
102
RTVSPropertyOp23
 70
     1
102
RTVSPropertyOp24
 70
     1
102
RTVSPropertyOp25
 70
     1
102
RTVSPropertyOp26
 70
     1
102
RTVSPropertyOp27
 70
     1
102
RTVSPropertyOp28
 70
     1
102
RTVSPropertyOp29
 70
     1
102
RTVSPropertyOp30
 70
     1
102
RTVSPropertyOp31
 70
     1
102
RTVSPropertyOp32
 70
     1
  0
XRECORD
  5
1E6A
102
{ACAD_REACTORS
330
1E69
102
}
330
1E69
100
AcDbXrecord
280
     1
102
RTVSPropertyOp0
 70
     0
102
RTVSPropertyOp1
 70
     0
102
RTVSPropertyOp2
 70
     0
102
RTVSPropertyOp3
 70
     0
102
RTVSPropertyOp4
 70
     0
102
RTVSPropertyOp5
 70
     0
102
RTVSPropertyOp6
 70
     0
102
RTVSPropertyOp7
 70
     0
102
RTVSPropertyOp8
 70
     0
102
RTVSPropertyOp9
 70
     0
102
RTVSPropertyOp10
 70
     0
102
RTVSPropertyOp11
 70
     0
102
RTVSPropertyOp12
 70
     0
102
RTVSPropertyOp13
 70
     0
102
RTVSPropertyOp14
 70
     2
102
RTVSPropertyOp15
 70
     0
102
RTVSPropertyOp16
 70
     0
102
RTVSPropertyOp17
 70
     0
102
RTVSPropertyOp18
 70
     0
102
RTVSPropertyOp19
 70
     0
102
RTVSPropertyOp20
 70
     0
102
RTVSPropertyOp21
 70
     0
102
RTVSPropertyOp22
 70
     0
102
RTVSPropertyOp23
 70
     0
102
RTVSPropertyOp24
 70
     0
102
RTVSPropertyOp25
 70
     0
102
RTVSPropertyOp26
 70
     0
102
RTVSPropertyOp27
 70
     0
102
RTVSPropertyOp28
 70
     0
102
RTVSPropertyOp29
 70
     0
102
RTVSPropertyOp30
 70
     0
102
RTVSPropertyOp31
 70
     0
102
RTVSPropertyOp32
 70
     0
  0
XRECORD
  5
1E5A
102
{ACAD_REACTORS
330
1E59
102
}
330
1E59
100
AcDbXrecord
280
     1
102
RTVSPropertyOp0
 70
     1
102
RTVSPropertyOp1
 70
     1
102
RTVSPropertyOp2
 70
     1
102
RTVSPropertyOp3
 70
     1
102
RTVSPropertyOp4
 70
     1
102
RTVSPropertyOp5
 70
     1
102
RTVSPropertyOp6
 70
     1
102
RTVSPropertyOp7
 70
     1
102
RTVSPropertyOp8
 70
     1
102
RTVSPropertyOp9
 70
     1
102
RTVSPropertyOp10
 70
     1
102
RTVSPropertyOp11
 70
     1
102
RTVSPropertyOp12
 70
     1
102
RTVSPropertyOp13
 70
     1
102
RTVSPropertyOp14
 70
     1
102
RTVSPropertyOp15
 70
     1
102
RTVSPropertyOp16
 70
     1
102
RTVSPropertyOp17
 70
     1
102
RTVSPropertyOp18
 70
     1
102
RTVSPropertyOp19
 70
     1
102
RTVSPropertyOp20
 70
     1
102
RTVSPropertyOp21
 70
     1
102
RTVSPropertyOp22
 70
     1
102
RTVSPropertyOp23
 70
     1
102
RTVSPropertyOp24
 70
     1
102
RTVSPropertyOp25
 70
     1
102
RTVSPropertyOp26
 70
     1
102
RTVSPropertyOp27
 70
     1
102
RTVSPropertyOp28
 70
     1
102
RTVSPropertyOp29
 70
     1
102
RTVSPropertyOp30
 70
     1
102
RTVSPropertyOp31
 70
     1
102
RTVSPropertyOp32
 70
     1
  0
XRECORD
  5
1E6C
102
{ACAD_REACTORS
330
1E6B
102
}
330
1E6B
100
AcDbXrecord
280
     1
102
RTVSPropertyOp0
 70
     0
102
RTVSPropertyOp1
 70
     0
102
RTVSPropertyOp2
 70
     0
102
RTVSPropertyOp3
 70
     0
102
RTVSPropertyOp4
 70
     0
102
RTVSPropertyOp5
 70
     0
102
RTVSPropertyOp6
 70
     0
102
RTVSPropertyOp7
 70
     0
102
RTVSPropertyOp8
 70
     0
102
RTVSPropertyOp9
 70
     0
102
RTVSPropertyOp10
 70
     0
102
RTVSPropertyOp11
 70
     0
102
RTVSPropertyOp12
 70
     0
102
RTVSPropertyOp13
 70
     0
102
RTVSPropertyOp14
 70
     2
102
RTVSPropertyOp15
 70
     0
102
RTVSPropertyOp16
 70
     0
102
RTVSPropertyOp17
 70
     0
102
RTVSPropertyOp18
 70
     0
102
RTVSPropertyOp19
 70
     0
102
RTVSPropertyOp20
 70
     0
102
RTVSPropertyOp21
 70
     0
102
RTVSPropertyOp22
 70
     0
102
RTVSPropertyOp23
 70
     0
102
RTVSPropertyOp24
 70
     0
102
RTVSPropertyOp25
 70
     0
102
RTVSPropertyOp26
 70
     0
102
RTVSPropertyOp27
 70
     0
102
RTVSPropertyOp28
 70
     0
102
RTVSPropertyOp29
 70
     0
102
RTVSPropertyOp30
 70
     0
102
RTVSPropertyOp31
 70
     0
102
RTVSPropertyOp32
 70
     0
  0
XRECORD
  5
1E52
102
{ACAD_REACTORS
330
1E51
102
}
330
1E51
100
AcDbXrecord
280
     1
102
RTVSPropertyOp0
 70
     1
102
RTVSPropertyOp1
 70
     1
102
RTVSPropertyOp2
 70
     1
102
RTVSPropertyOp3
 70
     1
102
RTVSPropertyOp4
 70
     1
102
RTVSPropertyOp5
 70
     1
102
RTVSPropertyOp6
 70
     1
102
RTVSPropertyOp7
 70
     1
102
RTVSPropertyOp8
 70
     1
102
RTVSPropertyOp9
 70
     1
102
RTVSPropertyOp10
 70
     1
102
RTVSPropertyOp11
 70
     1
102
RTVSPropertyOp12
 70
     1
102
RTVSPropertyOp13
 70
     1
102
RTVSPropertyOp14
 70
     1
102
RTVSPropertyOp15
 70
     1
102
RTVSPropertyOp16
 70
     1
102
RTVSPropertyOp17
 70
     1
102
RTVSPropertyOp18
 70
     1
102
RTVSPropertyOp19
 70
     1
102
RTVSPropertyOp20
 70
     1
102
RTVSPropertyOp21
 70
     1
102
RTVSPropertyOp22
 70
     1
102
RTVSPropertyOp23
 70
     1
102
RTVSPropertyOp24
 70
     1
102
RTVSPropertyOp25
 70
     1
102
RTVSPropertyOp26
 70
     1
102
RTVSPropertyOp27
 70
     1
102
RTVSPropertyOp28
 70
     1
102
RTVSPropertyOp29
 70
     1
102
RTVSPropertyOp30
 70
     1
102
RTVSPropertyOp31
 70
     1
102
RTVSPropertyOp32
 70
     1
  0
XRECORD
  5
1E68
102
{ACAD_REACTORS
330
1E67
102
}
330
1E67
100
AcDbXrecord
280
     1
102
RTVSPropertyOp0
 70
     1
102
RTVSPropertyOp1
 70
     1
102
RTVSPropertyOp2
 70
     1
102
RTVSPropertyOp3
 70
     1
102
RTVSPropertyOp4
 70
     1
102
RTVSPropertyOp5
 70
     1
102
RTVSPropertyOp6
 70
     1
102
RTVSPropertyOp7
 70
     1
102
RTVSPropertyOp8
 70
     1
102
RTVSPropertyOp9
 70
     1
102
RTVSPropertyOp10
 70
     1
102
RTVSPropertyOp11
 70
     1
102
RTVSPropertyOp12
 70
     1
102
RTVSPropertyOp13
 70
     1
102
RTVSPropertyOp14
 70
     1
102
RTVSPropertyOp15
 70
     1
102
RTVSPropertyOp16
 70
     1
102
RTVSPropertyOp17
 70
     1
102
RTVSPropertyOp18
 70
     1
102
RTVSPropertyOp19
 70
     1
102
RTVSPropertyOp20
 70
     1
102
RTVSPropertyOp21
 70
     1
102
RTVSPropertyOp22
 70
     1
102
RTVSPropertyOp23
 70
     1
102
RTVSPropertyOp24
 70
     1
102
RTVSPropertyOp25
 70
     1
102
RTVSPropertyOp26
 70
     1
102
RTVSPropertyOp27
 70
     1
102
RTVSPropertyOp28
 70
     1
102
RTVSPropertyOp29
 70
     1
102
RTVSPropertyOp30
 70
     1
102
RTVSPropertyOp31
 70
     1
102
RTVSPropertyOp32
 70
     1
  0
XRECORD
  5
1E66
102
{ACAD_REACTORS
330
1E65
102
}
330
1E65
100
AcDbXrecord
280
     1
102
RTVSPropertyOp0
 70
     1
102
RTVSPropertyOp1
 70
     1
102
RTVSPropertyOp2
 70
     1
102
RTVSPropertyOp3
 70
     1
102
RTVSPropertyOp4
 70
     1
102
RTVSPropertyOp5
 70
     1
102
RTVSPropertyOp6
 70
     1
102
RTVSPropertyOp7
 70
     1
102
RTVSPropertyOp8
 70
     1
102
RTVSPropertyOp9
 70
     1
102
RTVSPropertyOp10
 70
     1
102
RTVSPropertyOp11
 70
     1
102
RTVSPropertyOp12
 70
     1
102
RTVSPropertyOp13
 70
     1
102
RTVSPropertyOp14
 70
     1
102
RTVSPropertyOp15
 70
     1
102
RTVSPropertyOp16
 70
     1
102
RTVSPropertyOp17
 70
     1
102
RTVSPropertyOp18
 70
     1
102
RTVSPropertyOp19
 70
     1
102
RTVSPropertyOp20
 70
     1
102
RTVSPropertyOp21
 70
     1
102
RTVSPropertyOp22
 70
     1
102
RTVSPropertyOp23
 70
     1
102
RTVSPropertyOp24
 70
     1
102
RTVSPropertyOp25
 70
     1
102
RTVSPropertyOp26
 70
     1
102
RTVSPropertyOp27
 70
     1
102
RTVSPropertyOp28
 70
     1
102
RTVSPropertyOp29
 70
     1
102
RTVSPropertyOp30
 70
     1
102
RTVSPropertyOp31
 70
     1
102
RTVSPropertyOp32
 70
     1
  0
XRECORD
  5
1E60
102
{ACAD_REACTORS
330
1E5F
102
}
330
1E5F
100
AcDbXrecord
280
     1
102
RTVSPropertyOp0
 70
     1
102
RTVSPropertyOp1
 70
     1
102
RTVSPropertyOp2
 70
     1
102
RTVSPropertyOp3
 70
     1
102
RTVSPropertyOp4
 70
     1
102
RTVSPropertyOp5
 70
     1
102
RTVSPropertyOp6
 70
     1
102
RTVSPropertyOp7
 70
     1
102
RTVSPropertyOp8
 70
     1
102
RTVSPropertyOp9
 70
     1
102
RTVSPropertyOp10
 70
     1
102
RTVSPropertyOp11
 70
     1
102
RTVSPropertyOp12
 70
     1
102
RTVSPropertyOp13
 70
     1
102
RTVSPropertyOp14
 70
     1
102
RTVSPropertyOp15
 70
     1
102
RTVSPropertyOp16
 70
     1
102
RTVSPropertyOp17
 70
     1
102
RTVSPropertyOp18
 70
     1
102
RTVSPropertyOp19
 70
     1
102
RTVSPropertyOp20
 70
     1
102
RTVSPropertyOp21
 70
     1
102
RTVSPropertyOp22
 70
     1
102
RTVSPropertyOp23
 70
     1
102
RTVSPropertyOp24
 70
     1
102
RTVSPropertyOp25
 70
     1
102
RTVSPropertyOp26
 70
     1
102
RTVSPropertyOp27
 70
     1
102
RTVSPropertyOp28
 70
     1
102
RTVSPropertyOp29
 70
     1
102
RTVSPropertyOp30
 70
     1
102
RTVSPropertyOp31
 70
     1
102
RTVSPropertyOp32
 70
     1
  0
XRECORD
  5
1E62
102
{ACAD_REACTORS
330
1E61
102
}
330
1E61
100
AcDbXrecord
280
     1
102
RTVSPropertyOp0
 70
     1
102
RTVSPropertyOp1
 70
     1
102
RTVSPropertyOp2
 70
     1
102
RTVSPropertyOp3
 70
     1
102
RTVSPropertyOp4
 70
     1
102
RTVSPropertyOp5
 70
     1
102
RTVSPropertyOp6
 70
     1
102
RTVSPropertyOp7
 70
     1
102
RTVSPropertyOp8
 70
     1
102
RTVSPropertyOp9
 70
     1
102
RTVSPropertyOp10
 70
     1
102
RTVSPropertyOp11
 70
     1
102
RTVSPropertyOp12
 70
     1
102
RTVSPropertyOp13
 70
     1
102
RTVSPropertyOp14
 70
     1
102
RTVSPropertyOp15
 70
     1
102
RTVSPropertyOp16
 70
     1
102
RTVSPropertyOp17
 70
     1
102
RTVSPropertyOp18
 70
     1
102
RTVSPropertyOp19
 70
     1
102
RTVSPropertyOp20
 70
     1
102
RTVSPropertyOp21
 70
     1
102
RTVSPropertyOp22
 70
     1
102
RTVSPropertyOp23
 70
     1
102
RTVSPropertyOp24
 70
     1
102
RTVSPropertyOp25
 70
     1
102
RTVSPropertyOp26
 70
     1
102
RTVSPropertyOp27
 70
     1
102
RTVSPropertyOp28
 70
     1
102
RTVSPropertyOp29
 70
     1
102
RTVSPropertyOp30
 70
     1
102
RTVSPropertyOp31
 70
     1
102
RTVSPropertyOp32
 70
     1
  0
XRECORD
  5
1E58
102
{ACAD_REACTORS
330
1E57
102
}
330
1E57
100
AcDbXrecord
280
     1
102
RTVSPropertyOp0
 70
     1
102
RTVSPropertyOp1
 70
     1
102
RTVSPropertyOp2
 70
     1
102
RTVSPropertyOp3
 70
     1
102
RTVSPropertyOp4
 70
     1
102
RTVSPropertyOp5
 70
     1
102
RTVSPropertyOp6
 70
     1
102
RTVSPropertyOp7
 70
     1
102
RTVSPropertyOp8
 70
     1
102
RTVSPropertyOp9
 70
     1
102
RTVSPropertyOp10
 70
     1
102
RTVSPropertyOp11
 70
     1
102
RTVSPropertyOp12
 70
     1
102
RTVSPropertyOp13
 70
     1
102
RTVSPropertyOp14
 70
     1
102
RTVSPropertyOp15
 70
     1
102
RTVSPropertyOp16
 70
     1
102
RTVSPropertyOp17
 70
     1
102
RTVSPropertyOp18
 70
     1
102
RTVSPropertyOp19
 70
     1
102
RTVSPropertyOp20
 70
     1
102
RTVSPropertyOp21
 70
     1
102
RTVSPropertyOp22
 70
     1
102
RTVSPropertyOp23
 70
     1
102
RTVSPropertyOp24
 70
     1
102
RTVSPropertyOp25
 70
     1
102
RTVSPropertyOp26
 70
     1
102
RTVSPropertyOp27
 70
     1
102
RTVSPropertyOp28
 70
     1
102
RTVSPropertyOp29
 70
     1
102
RTVSPropertyOp30
 70
     1
102
RTVSPropertyOp31
 70
     1
102
RTVSPropertyOp32
 70
     1
  0
XRECORD
  5
1E4C
102
{ACAD_REACTORS
330
1E4B
102
}
330
1E4B
100
AcDbXrecord
280
     1
102
RTVSPropertyOp0
 70
     1
102
RTVSPropertyOp1
 70
     1
102
RTVSPropertyOp2
 70
     1
102
RTVSPropertyOp3
 70
     1
102
RTVSPropertyOp4
 70
     1
102
RTVSPropertyOp5
 70
     1
102
RTVSPropertyOp6
 70
     1
102
RTVSPropertyOp7
 70
     1
102
RTVSPropertyOp8
 70
     1
102
RTVSPropertyOp9
 70
     1
102
RTVSPropertyOp10
 70
     1
102
RTVSPropertyOp11
 70
     1
102
RTVSPropertyOp12
 70
     1
102
RTVSPropertyOp13
 70
     1
102
RTVSPropertyOp14
 70
     1
102
RTVSPropertyOp15
 70
     1
102
RTVSPropertyOp16
 70
     1
102
RTVSPropertyOp17
 70
     1
102
RTVSPropertyOp18
 70
     1
102
RTVSPropertyOp19
 70
     1
102
RTVSPropertyOp20
 70
     1
102
RTVSPropertyOp21
 70
     1
102
RTVSPropertyOp22
 70
     1
102
RTVSPropertyOp23
 70
     1
102
RTVSPropertyOp24
 70
     1
102
RTVSPropertyOp25
 70
     1
102
RTVSPropertyOp26
 70
     1
102
RTVSPropertyOp27
 70
     1
102
RTVSPropertyOp28
 70
     1
102
RTVSPropertyOp29
 70
     1
102
RTVSPropertyOp30
 70
     1
102
RTVSPropertyOp31
 70
     1
102
RTVSPropertyOp32
 70
     1
  0
XRECORD
  5
1E64
102
{ACAD_REACTORS
330
1E63
102
}
330
1E63
100
AcDbXrecord
280
     1
102
RTVSPropertyOp0
 70
     1
102
RTVSPropertyOp1
 70
     1
102
RTVSPropertyOp2
 70
     1
102
RTVSPropertyOp3
 70
     1
102
RTVSPropertyOp4
 70
     1
102
RTVSPropertyOp5
 70
     1
102
RTVSPropertyOp6
 70
     1
102
RTVSPropertyOp7
 70
     1
102
RTVSPropertyOp8
 70
     1
102
RTVSPropertyOp9
 70
     1
102
RTVSPropertyOp10
 70
     1
102
RTVSPropertyOp11
 70
     1
102
RTVSPropertyOp12
 70
     1
102
RTVSPropertyOp13
 70
     1
102
RTVSPropertyOp14
 70
     1
102
RTVSPropertyOp15
 70
     1
102
RTVSPropertyOp16
 70
     1
102
RTVSPropertyOp17
 70
     1
102
RTVSPropertyOp18
 70
     1
102
RTVSPropertyOp19
 70
     1
102
RTVSPropertyOp20
 70
     1
102
RTVSPropertyOp21
 70
     1
102
RTVSPropertyOp22
 70
     1
102
RTVSPropertyOp23
 70
     1
102
RTVSPropertyOp24
 70
     1
102
RTVSPropertyOp25
 70
     1
102
RTVSPropertyOp26
 70
     1
102
RTVSPropertyOp27
 70
     1
102
RTVSPropertyOp28
 70
     1
102
RTVSPropertyOp29
 70
     1
102
RTVSPropertyOp30
 70
     1
102
RTVSPropertyOp31
 70
     1
102
RTVSPropertyOp32
 70
     1
  0
ENDSEC
  0
EOF
